Loading...
Error

Опальный баловень судьбы. Михаил Названов (Елена Никитан) [2004 г., документальный, биография, SatRip]

Статистика раздачи
Размер:  364 MB   |    Зарегистрирован:  5 месяцев 15 дней   |    Скачан:  0 раз

Полного источника не было: 5 месяцев 13 дней

Сидов:  0  |  0 KB/s  ]   Личеров:  0  |  0 KB/s  ]

* - сиды/пиры с внешних источников

   
 
Автор Сообщение

ARI71 Пол:Муж

20-Июн-2016 20:12

Опальный баловень судьбы. Михаил Названов


Год выпуска: 2004
Жанр: документальный, биография
Страна: Россия ГТРК "Культура"
Режиссер: Елена Никитан
Сюжет фильма:
Михаил Названов - актер с необыкновенным мужским обаянием, чувством стиля, художественным вкусом. Он был заметной, яркой фигурой в жизни театральной и кинематографической Москвы. В фильме принимают участие: Наталья Вячеславовна Москвитина (племянница актрисы Ольги Викланд) и ее супруг Игорь Алексеевич Гаврилов.

Михаил Михайлович Назва́нов (30 января [12 февраля] 1914, Москва, — 13 июля 1964, Москва) — советский актёр. Заслуженный артист РСФСР (1949). Лауреат трёх Сталинских премий (1948, 1949, 1950).

Качество видео: SatRip

Продолжительность: 00:38:30
Формат: AVI
Видео: XviD, 704x528, ~1184 kbps
Аудио: русский, (оригинал), MP3 2.0, ~128.00 kbps

Код:

Общее
Полное имя : D:\Опальный баловень судьбы. Михаил Названов.avi
Формат : AVI
Формат/Информация : Audio Video Interleave
Размер файла : 364 Мбайт
Продолжительность : 38 м.
Общий поток : 1322 Кбит/сек
Программа кодирования : VirtualDubMod 1.5.10.3 | www.virtualdub-fr.org || (build 2550/release)
Библиотека кодирования : VirtualDubMod build 2550/release

Видео
Идентификатор : 0
Формат : MPEG-4 Visual
Профиль формата : Advanced Simple@L5
Параметр BVOP формата : 2
Параметр QPel формата : Нет
Параметр GMC формата : Без точки перехода
Параметр матрицы формата : Default (MPEG)
Режим смешивания : Сжатый битовый поток
Идентификатор кодека : XVID
Идентификатор кодека/Подсказка : XviD
Продолжительность : 38 м.
Битрейт : 1184 Кбит/сек
Ширина : 704 пикселя
Высота : 528 пикселей
Соотношение сторон : 4:3
Частота кадров : 25,000 кадров/сек
Цветовое пространство : YUV
Субдискретизация насыщенности : 4:2:0
Битовая глубина : 8 бит
Тип развёртки : Прогрессивная
Метод сжатия : С потерями
Бит/(Пиксели*Кадры) : 0.127
Размер потока : 326 Мбайт (90%)
Библиотека кодирования : XviD 1.2.1 (UTC 2008-12-04)

Аудио
Идентификатор : 1
Формат : MPEG Audio
Версия формата : Version 1
Профиль формата : Layer 3
Идентификатор кодека : 55
Идентификатор кодека/Подсказка : MP3
Продолжительность : 38 м.
Вид битрейта : Постоянный
Битрейт : 128 Кбит/сек
Каналы : 2 канала
Частота : 48,0 КГц
Метод сжатия : С потерями
Размер потока : 35,2 Мбайт (10%)
Выравнивание : Соединение по промежуткам
Продолжительность промежутка : 40 мс. (1,00 видеокадр)
Время предзагрузки промежутка : 504 мс.
Библиотека кодирования : LAME3.99r
Настройки программы : -m s -V 4 -q 2 -lowpass 17 -b 128
picpicpicpic
Для увеличения картинки щелкните мышкой по превью

Этот торрент недоступен для скачивания без регистрации, однако доступен по публичной magnet-ссылке (источники с публичных трекеров). Перед использованием ссылки прочтите, пожалуйста Пользовательское соглашение, а также как можно дольше оставайтесь на раздаче! Для того, чтобы скачать сам торрент-файл (который видит больше источников), а также для того, чтобы поблагодарить релизера, вам необходимо зарегистрироваться. Если регистрироваться лень - вы можете также попробовать скачать релиз по нашим партнерским ссылкам ниже.

[underverse.su].t67375.torrent
Трекер: Зарегистрирован   [ 20.06.2016 20:12 ]  

Статус: проверено (by makkol at 20.06.2016 22:02)
Поблагодарили: пока никто не поблагодарил...
Тип торрента: публичный - доступные источники с открытых трекеров: 
Размер: 364 MB (занимает 0,08 DVDR, для записи нужно 1 болванка DVDR/RW)
 
 

Яндекс.Метрика powered by Sphinx


В Н И М А Н И Е
Сайт не распространяет и не хранит электронные версии произведений, а лишь бесплатно и без коммерческой выгоды (не требуя взамен платы,
SMS и т.д.) предоставляет доступ к создаваемому пользователями каталогу ссылок на торрент-файлы, которые содержат только списки хеш-сумм.
Убедительная просьба с жалобами обращаться напрямую к пользователю, разместившему торрент файл.

Вверх