Loading...
Error

Преступная Россия (Пьющая Россия) [2016 г., документальный, информационно-аналитический, WEBRip 1080p]

Статистика раздачи
Размер:  283 MB   |    Зарегистрирован:  5 месяцев 18 дней   |    Скачан:  5 раз

Полного источника не было: 12 часов

Сидов:  0  |  0 KB/s  ]   Личеров:  0  |  0 KB/s  ]

* - сиды/пиры с внешних источников

   
 
Автор Сообщение

ARI71 Пол:Муж

20-Июн-2016 14:54

Преступная Россия (Пьющая Россия)


Год выпуска: 2016
Жанр: документальный, информационно-аналитический
Страна: Россия
Сюжет фильма:
В последние пару лет новости о подорожании продуктов следуют одна за другой. Дешевеют только горячительные напитки. Кому и насколько выгодна дешевая водка на полках магазинов?
Качество видео: WEBRip 1080p

Продолжительность: 00:13:41
Формат: MKV
Видео: V_MPEG4/ISO/AVC, 1920x1080, ~2641 kbps
Аудио: русский, (оригинал), AC3 2.0, ~192.00 kbps

Код:

Общее
Уникальный идентификатор : 260968809184068992740471045497463400350 (0xC454C3B0C22062422DD739AAAA6A679E)
Полное имя : D:\Пьющая Россия.mkv
Формат : Matroska
Версия формата : Version 4 / Version 2
Размер файла : 283 Мбайт
Продолжительность : 13 м.
Общий поток : 2890 Кбит/сек
Программа кодирования : Lavf56.36.100
Библиотека кодирования : Lavf56.36.100 / Lavf56.36.100

Видео
Идентификатор : 1
Формат : AVC
Формат/Информация : Advanced Video Codec
Профиль формата : High@L4
Параметр CABAC формата : Да
Параметр ReFrames формата : 2 кадра
Идентификатор кодека : V_MPEG4/ISO/AVC
Продолжительность : 13 м.
Битрейт : 2641 Кбит/сек
Ширина : 1920 пикселей
Высота : 1080 пикселей
Соотношение сторон : 16:9
Режим частоты кадров : Постоянный
Частота кадров : 25,000 кадров/сек
Цветовое пространство : YUV
Субдискретизация насыщенности : 4:2:0
Битовая глубина : 8 бит
Тип развёртки : Прогрессивная
Бит/(Пиксели*Кадры) : 0.051
Размер потока : 259 Мбайт (91%)
Default : Да
Forced : Нет
Цветовой диапазон : Limited
Основные цвета : BT.709
Характеристики трансфера : BT.709
Коэффициенты матрицы : BT.709

Аудио
Идентификатор : 2
Формат : AC-3
Формат/Информация : Audio Coding 3
Расширение режима : CM (complete main)
Параметр Endianness формата : Big
Идентификатор кодека : A_AC3
Продолжительность : 13 м.
Вид битрейта : Постоянный
Битрейт : 192 Кбит/сек
Каналы : 2 канала
Расположение каналов : Front: L R
Частота : 44,1 КГц
Частота кадров : 28,711 кадров/сек (1536 spf)
Метод сжатия : С потерями
Задержка видео : -160 мс.
Размер потока : 18,8 Мбайт (7%)
Default : Да
Forced : Нет
Релиз группы:

picpicpicpicpic
Для увеличения картинки щелкните мышкой по превью

Этот торрент недоступен для скачивания без регистрации, однако доступен по публичной magnet-ссылке (источники с публичных трекеров). Перед использованием ссылки прочтите, пожалуйста Пользовательское соглашение, а также как можно дольше оставайтесь на раздаче! Для того, чтобы скачать сам торрент-файл (который видит больше источников), а также для того, чтобы поблагодарить релизера, вам необходимо зарегистрироваться. Если регистрироваться лень - вы можете также попробовать скачать релиз по нашим партнерским ссылкам ниже.

[underverse.su].t67371.torrent
Трекер: Зарегистрирован   [ 20.06.2016 14:54 ]  

Статус: проверено (by makkol at 20.06.2016 16:38)
Поблагодарили: 1 человек
Тип торрента: публичный - доступные источники с открытых трекеров: 
Размер: 283 MB (занимает 0,06 DVDR, для записи нужно 1 болванка DVDR/RW)
 
 
Похожие темы
Форум Тема Автор Торрент Отв. Посл. сооб.
Зарубежное кино [DVDRip, Low-Res HDRip, и т.д.] Преступная деятельность / Criminal Activities (Джеки Эрл Хейли) [2015 г., триллер, драма, криминал, WEB-DLRip] MVO makkol
492 | 4

0 | 640

33

08.12.2015 10:50

Зарубежное кино [HDDVDRip / BDRip / WEB-DL / HDTV 1080/720р] Преступная деятельность / Criminal Activities (Джеки Эрл Хейли) [2015 г., триллер, драма, криминал, WEB-DL 720p] MVO + Original makkol
44 | 0

0 | 451

24

10.12.2015 11:51


Яндекс.Метрика powered by Sphinx


В Н И М А Н И Е
Сайт не распространяет и не хранит электронные версии произведений, а лишь бесплатно и без коммерческой выгоды (не требуя взамен платы,
SMS и т.д.) предоставляет доступ к создаваемому пользователями каталогу ссылок на торрент-файлы, которые содержат только списки хеш-сумм.
Убедительная просьба с жалобами обращаться напрямую к пользователю, разместившему торрент файл.

Вверх