Loading...
Error

Большое путешествие Пи-Ви / Дом игрушек Пи-ви / Pee-Wee's big holiday (Джон Ли) [2016 г., комедия, приключения, WEB-DLRip] VO

Статистика раздачи
Размер:  1,34 GB   |    Зарегистрирован:  5 месяцев 19 дней   |    Скачан:  17 раз

Полного источника не было: 12 часов

Сидов:  0  |  0 KB/s  ]   Личеров:  0  |  0 KB/s  ]

* - сиды/пиры с внешних источников

   
 
Автор Сообщение

makkol Пол:Муж

20-Июн-2016 11:57

Большое путешествие Пи-Ви / Дом игрушек Пи-ви / Pee-Wee's big holiday


Год выпуска: 2016
Жанр: комедия, приключения
Производство: США [Apatow Productions, Pee Wee Pictures]
Режиссер: Джон Ли
В ролях: Пол Рубенс, Джордан Блэк, Даг Кокс, Линда Портер, Моника Хоран, Брайан Палермо, Кэтерин Вандерлинден, Тара Бак, Джон Х. Майер, Ричард Рили
Сюжет фильма:
Пи-Ви - маленький человек, живущий в маленьком городке и весьма довольный своей жизнью. Однако, серия неожиданных событий вынуждает Пи-Ви покинуть свою малую родину и отправиться в грандиозное путешествие по стране. Он встретит настоящих грабителей банков, познакомится с дружелюбным фермером и его девятью сексуально озабоченными дочерьми, а еще побывает в общине амишей.

  • Мировая премьера: 17 марта 2016


Качество видео: WEB-DLRip

Продолжительность: 01:29:07
Формат: AVI
Видео: XviD, 720x384 (1.85:1), 23.976 fps, 2021 kbps
Аудио: русский, любительский одноголосый закадровый, MP3 2.0, 44.1 kHz, 128 kbps

Код:

Формат                                   : AVI
Формат/Информация                        : Audio Video Interleave
Размер файла                             : 1,34 Гбайт
Продолжительность                        : 1 ч. 29 м.
Общий поток                              : 2159 Кбит/сек
Программа кодирования                    : VirtualDubMod 1.5.10.2 (build 2540/release)
Библиотека кодирования                   : VirtualDubMod build 2540/release

Видео
Идентификатор                            : 0
Формат                                   : MPEG-4 Visual
Профиль формата                          : Advanced Simple@L5
Параметр BVOP формата                    : 2
Параметр QPel формата                    : Нет
Параметр GMC формата                     : Без точки перехода
Параметр матрицы формата                 : Default (H.263)
Режим смешивания                         : Сжатый битовый поток
Идентификатор кодека                     : XVID
Идентификатор кодека/Подсказка           : XviD
Продолжительность                        : 1 ч. 29 м.
Битрейт                                  : 2021 Кбит/сек
Ширина                                   : 720 пикселей
Высота                                   : 384 пикселя
Соотношение сторон                       : 1,85:1
Частота кадров                           : 23,976 (23976/1000) кадра/сек
Цветовое пространство                    : YUV
Субдискретизация насыщенности            : 4:2:0
Битовая глубина                          : 8 бит
Тип развёртки                            : Прогрессивная
Метод сжатия                             : С потерями
Бит/(Пиксели*Кадры)                      : 0.305
Размер потока                            : 1,26 Гбайт (94%)
Библиотека кодирования                   : XviD 66

Аудио
Идентификатор                            : 1
Формат                                   : MPEG Audio
Версия формата                           : Version 1
Профиль формата                          : Layer 3
Режим                                    : Joint stereo
Расширение режима                        : MS Stereo
Идентификатор кодека                     : 55
Идентификатор кодека/Подсказка           : MP3
Продолжительность                        : 1 ч. 29 м.
Вид битрейта                             : Постоянный
Битрейт                                  : 128 Кбит/сек
Каналы                                   : 2 канала
Частота                                  : 44,1 КГц
Метод сжатия                             : С потерями
Размер потока                            : 81,6 Мбайт (6%)
Выравнивание                             : Разделение по промежуткам
Продолжительность промежутка             : 42  мс. (1,00 видеокадр)
Время предзагрузки промежутка            : 500  мс.
Перевод: М.Васильев
Озвучивание: Cmert
picpicpicpicpic
Для увеличения картинки щелкните мышкой по превью

Этот торрент недоступен для скачивания без регистрации, однако доступен по публичной magnet-ссылке (источники с публичных трекеров). Перед использованием ссылки прочтите, пожалуйста Пользовательское соглашение, а также как можно дольше оставайтесь на раздаче! Для того, чтобы скачать сам торрент-файл (который видит больше источников), а также для того, чтобы поблагодарить релизера, вам необходимо зарегистрироваться. Если регистрироваться лень - вы можете также попробовать скачать релиз по нашим партнерским ссылкам ниже.

[underverse.su].t67370.torrent
Трекер: Зарегистрирован   [ 20.06.2016 11:57 ]  

Статус: проверено (by makkol at 24.06.2016 23:12)
Поблагодарили: пока никто не поблагодарил...
Тип торрента: публичный - доступные источники с открытых трекеров: 
Размер: 1,34 GB (занимает 0,31 DVDR, для записи нужно 1 болванка DVDR/RW)
 
 
Похожие темы
Форум Тема Автор Торрент Отв. Посл. сооб.
Архив Большое путешествие / The Wild (Стив «Спаз» Уильямс ) [2006 г., комедия, приключения, семейный, мультфильм, DVDRip] NMZ
0 | 0

4 | 1208

10

08.10.2010 21:24


Яндекс.Метрика powered by Sphinx


В Н И М А Н И Е
Сайт не распространяет и не хранит электронные версии произведений, а лишь бесплатно и без коммерческой выгоды (не требуя взамен платы,
SMS и т.д.) предоставляет доступ к создаваемому пользователями каталогу ссылок на торрент-файлы, которые содержат только списки хеш-сумм.
Убедительная просьба с жалобами обращаться напрямую к пользователю, разместившему торрент файл.

Вверх