Loading...
Error

Сокровища Древней Греции / Treasures of Ancient Greece (Дэвид Винсент) / (1-3 серии из 3) [2015 г., документальный, исторический, искусство, HDTVRip] VO

Статистика раздачи
Размер:  2,38 GB   |    Зарегистрирован:  5 месяцев 20 дней   |    Скачан:  4 раза
Сидов:  1  |  0 KB/s  ]   Личеров:  0  |  0 KB/s  ]

* - сиды/пиры с внешних источников

   
 
Автор Сообщение

ARI71 Пол:Муж

20-Июн-2016 07:42

Сокровища Древней Греции / Treasures of Ancient Greece (1-3 серии из 3)


Год выпуска: 2015
Жанр: документальный, исторический, искусство
Страна: Великобритания ВВС
Режиссер: Дэвид Винсент
В ролях: Алистер Сук, историки
Сюжет фильма:
Именно древние греки дали нам понимание того, каким должно быть искусство. Ни одна другая цивилизация не сыграла такую важную роль в формировании нашего видения совершенства форм, красоты, реалистичности. Сегодня суть реалистического искусства воспринимается нами как само-собой разумеющееся. Однако, изобрели его древние греки. Строго говоря они научили нас видеть. Именно здесь, в древней Греции, зародилась западная цивилизация. Её искусство возникло из более тёмного, удивительного прошлого, старого мира мифов, чудовищ, воображения, с корнями совершенно неожиданных мест, из мира, который продолжают открывать и поныне. Ведущий Алистер Сук постарается сложить воедино всё что мы знаем о самых ранних влияниях и отделить историю от мифов. Основываясь на эпосе Гомера и открытиях XX века он попробует раскрыть чудо возникновения греческого искусства.


Качество видео: HDTVRip

Продолжительность: 3 x ~ 00:51:35
Формат: AVI
Видео: XviD, 720x400, ~2012 kbps
Аудио: русский, одноголосый закадровый (профессиональный), AC3 2.0, ~192.00 kbps
(тех. данные всех серий идентичны)
01. Эпоха героев
02. Классическая революция
03. Длинная тень

Код:

Общее
Полное имя : D:\BBC_Treasures of Ancient Greece.HDTVRip.by RockeT [Virtus & KazTorrentS]\01_The Age of Heroes.HDTVRip.by RockeT [Virtus & KazTorrentS].avi
Формат : AVI
Формат/Информация : Audio Video Interleave
Размер файла : 808 Мбайт
Продолжительность : 51 м.
Общий поток : 2214 Кбит/сек
Программа кодирования : VirtualDubMod 1.5.10.3 | www.virtualdub-fr.org || (build 2550/release)
Библиотека кодирования : VirtualDubMod build 2550/release

Видео
Идентификатор : 0
Формат : MPEG-4 Visual
Профиль формата : Advanced Simple@L5
Параметр BVOP формата : 1
Параметр QPel формата : Нет
Параметр GMC формата : Без точки перехода
Параметр матрицы формата : Default (MPEG)
Идентификатор кодека : XVID
Идентификатор кодека/Подсказка : XviD
Продолжительность : 51 м.
Битрейт : 2012 Кбит/сек
Ширина : 720 пикселей
Высота : 400 пикселей
Соотношение сторон : 16:9
Частота кадров : 25,000 кадров/сек
Цветовое пространство : YUV
Субдискретизация насыщенности : 4:2:0
Битовая глубина : 8 бит
Тип развёртки : Прогрессивная
Метод сжатия : С потерями
Бит/(Пиксели*Кадры) : 0.279
Размер потока : 734 Мбайт (91%)
Библиотека кодирования : XviD 1.2.1 (UTC 2008-12-04)

Аудио
Идентификатор : 1
Формат : AC-3
Формат/Информация : Audio Coding 3
Расширение режима : CM (complete main)
Параметр Endianness формата : Big
Идентификатор кодека : 2000
Продолжительность : 51 м.
Вид битрейта : Постоянный
Битрейт : 192 Кбит/сек
Каналы : 2 канала
Расположение каналов : Front: L R
Частота : 48,0 КГц
Частота кадров : 31,250 кадров/сек (1536 spf)
Метод сжатия : С потерями
Размер потока : 70,1 Мбайт (9%)
Выравнивание : Разделение по промежуткам
Продолжительность промежутка : 40 мс. (1,00 видеокадр)
Время предзагрузки промежутка : 500 мс.
picpicpicpicpic
Для увеличения картинки щелкните мышкой по превью

Этот торрент недоступен для скачивания без регистрации, однако доступен по публичной magnet-ссылке (источники с публичных трекеров). Перед использованием ссылки прочтите, пожалуйста Пользовательское соглашение, а также как можно дольше оставайтесь на раздаче! Для того, чтобы скачать сам торрент-файл (который видит больше источников), а также для того, чтобы поблагодарить релизера, вам необходимо зарегистрироваться. Если регистрироваться лень - вы можете также попробовать скачать релиз по нашим партнерским ссылкам ниже.

[underverse.su].t67369.torrent
Трекер: Зарегистрирован   [ 20.06.2016 07:42 ]  

Статус: проверено (by makkol at 20.06.2016 10:44)
Поблагодарили: пока никто не поблагодарил...
Тип торрента: публичный - доступные источники с открытых трекеров: 
Размер: 2,38 GB (занимает 0,54 DVDR, для записи нужно 1 болванка DVDR/RW)
 
 
Похожие темы
Форум Тема Автор Торрент Отв. Посл. сооб.
Зарубежное кино [DVDRip, Low-Res HDRip, и т.д.] Сокровища чёрного ягуара / Treasure of the Black Jaguar (Майк Брюс) [2010 г., Боевик, приключения, HDTVRip] DVO Чертёнок
4 | 0

0 | 1630

24

04.10.2013 17:43

T Зарубежное кино [DVDRip, Low-Res HDRip, и т.д.] Сокровища государства / Treasure state (Эндрю Уист) [2013 г., приключения, семейный, WEB-DLRip] MVO makkol
1 | 0

0 | 587

5

26.06.2016 22:30

Классика зарубежного кино Сокровища Сьерра Мадре / The Treasure of the Sierra Madre (Джон Хьюстон) [1948 г., боевик, драма, приключения, вестерн, HDRip] deny-BOY
0 | 0

0 | 749

4

11.04.2012 11:48

Наше кино [DVDRip, Low-Res HDRip, и т.д.] Сокровища О.К. (Дмитрий Коробкин) [2013 г., комедия, приключения, WebRip] TERRAN
243 | 3

0 | 1505

101

16.06.2013 11:52

Наше кино [DVDRip, Low-Res HDRip, и т.д.] Сокровища О.К. (Дмитрий Коробкин) [2013 г., комедия, приключения, SATRip] 90ytr90
0 | 0

0 | 999

21

10.11.2013 08:36

* Наше кино [DVDRip, Low-Res HDRip, и т.д.] Сокровища О.К. (Дмитрий Коробкин) [2013 г., комедия, приключения, BDRip] 90ytr90

1 | 1878

28.11.2013 18:51

BBC Сокровища Инда / Treasures of the Indus (1-3 серии из 3) / (Хуг Томсон) [2015 г., документальный, путешествие, история, SatRip] DVO ARI71
6 | 0

1 | 791

1

28.08.2016 09:49

T Зарубежное кино [HDDVDRip / BDRip / WEB-DL / HDTV 1080/720р] Сокровища государства / Treasure state (Эндрю Уист) [2013 г., приключения, семейный, WEB-DL 1080p] MVO makkol
1 | 0

0 | 610

4

26.06.2016 22:39

Наше кино [HDDVDRip / BDRip / WEB-DL / HDTV 1080/720р] Сокровища О.К. (Дмитрий Коробкин) [2013 г., комедия, приключения, BDRip 720p] 90ytr90
1 | 0

0 | 451

12

28.11.2013 18:09

Другие Аркады Сокровища Монтесумы 4 [2013 г., Аркады / три в ряд] Ru/En [P] centoriuse
1 | 0

0 | 1341

33

28.09.2013 12:29


Яндекс.Метрика powered by Sphinx


В Н И М А Н И Е
Сайт не распространяет и не хранит электронные версии произведений, а лишь бесплатно и без коммерческой выгоды (не требуя взамен платы,
SMS и т.д.) предоставляет доступ к создаваемому пользователями каталогу ссылок на торрент-файлы, которые содержат только списки хеш-сумм.
Убедительная просьба с жалобами обращаться напрямую к пользователю, разместившему торрент файл.

Вверх