Loading...
Error

МЭШ / Чертова служба в госпитале МЭШ / M*A*S*H* / Сезоны 1-11 (Чарльз С. Дубин, Алан Алда, Берт Меткалф) [1972-1983 г., комедия, драма, военный, DVDRip] DVO + Original

Статистика раздачи
Размер:  91,03 GB   |    Зарегистрирован:  5 месяцев 21 день   |    Скачан:  2 раза

Полного источника не было: 5 месяцев 18 дней

Сидов:  0  |  0 KB/s  ]   Личеров:  0  |  0 KB/s  ]

* - сиды/пиры с внешних источников

   
 
Автор Сообщение

makkol Пол:Муж

19-Июн-2016 14:20

МЭШ / Чертова служба в госпитале МЭШ / M*A*S*H*


Год выпуска: 1972-1983
Жанр: комедия, драма, военный
Производство: США [20th Century Fox Television]
Режиссеы: Чарльз С. Дубин, Алан Алда, Берт Меткалф
В ролях: Алан Алда, Вэйн Роджерс, Ларри Линвилл, Лоретта Суит, МакЛин Стивенсон, Гэри Бергофф, Джейми Фарр, Вильям Кристофер, Дэвид Огден Стайерз, Майк Фаррелл, Гарри Морган
Сюжет фильма:
Телесериал "M*A*S*H" рассказывает о жизни группы врачей-хирургов, работающих в передвижном военном госпитале во время корейской войны в начале 50-х. Персонажи Передвижного Армейского Хирургического Госпиталя (МЭШ) стараются отвлечься от тяжелой повседневной работы. Это выливается в непредсказуемое и неадекватное поведение, что помогает им сохранять здравость рассудка в нездоровом окружении. Герои сериала - люди серьезные, которые обращаются к юмору с целью разрядки после гнетущей атмосферы операционных комнат, где они оказывают первую помощь пострадавшим на поле боя. Их юмор - своеобразная защита от страданий. Оперируя под звуки орудий и рев самолетов на 38 параллели, персонажи сериала "МЭШ" являются героями и восставшими из ада, бюрократами и бездельниками, демонами и ангелами. Все им сходит с рук, благодаря их изобретательности и мастерству хирургов.

  • Мировая премьера: 17 сентября 1972


Качество видео: DVDRip

Продолжительность: 251 x ~00:25:00
Формат: AVI
Видео: DivX, 512x384, 23.976 fps, ~1600 kbps
Аудио #1: русский, профессиональный двухголосый закадровый (РенТВ), MP3 (mono), 32 kHz, 64-96 kbps
Аудио #2: английский, оригинал, MP3 (mono), 32 kHz, 64-96 kbps
Аудио #3: английский, оригинал (с закадровым смехом), MP3 (mono), 32 kHz, 64-96 kbps
Субтитры: русские (на непереведённые места), английские внешние, SRT
Сезон 1

1. M*A*S*H - пилотная серия
2. К рынку, к рынку
3. Реквием легковесу
4. Кто главный хирург?
5. Муза
6. Доктор "Янки Дудл"
7. Бананы, крекеры и орехи
8. Ковбой
9. Генри, вернись домой!
10. Ненавижу загадки
11. Биологическая война
12. Дорогой отец
13. Эдвина
14. Любовная история
15. Капитан Таттл
16. Стук кольца
17. Иногда ты слышиш пулю...
18. Дорогой отец... снова
19. История с бельем
20. Игра "Армия - Флот"
21. Щекотливое положение
22. Майор Скрудж МакБернс
23. Перемирие
24. Концерт

Сезон 2

1. Нас расформируют?
2. Пятичасовой Чарли
3. Отчет Радара
4. Для всеобщего блага
5. Доктор Пирс и мистер Икс
6. Ким
7. Местный обслуживающий персонал
8. Суд над Генри
9. Дорогой отец - 3
10. Снайпер
11. Тяни лямку, Ястреб!
12. Сдайте мне!
13. Горячие губки и пустые ручки
15. Только для офицеров
16. Влюбленный Генри
17. Цена ботинка
18. Операция "Нос"
19. Избранные люди
20. Вольно!
21. Кризис
22. Джорж
23. Почта!
24. Шпионы-дилетанты

Сезон 3

1. Чокнутый генерал
2. Радужный мост
3. Дежурный офицер
4. Железный Келли
5. Операционная
6. Весна
7. Ежегодная проверка
8. Отче Наш...
9. Неанонимные алкоголики
10. Что может быть лучше медсестры?
11. Адамовы ребрышки
12. Насыщенный день
13. Бешенные собаки и военнослужащие
14. Рядовой Чарльз Ягненок
15. Под обстрелом
16. Доска объявлений
17. Консультант
18. Домашний арест
19. Пункт первой помощи
20. Любовь и брак
21. Большой начальник
22. Зарплата
23. Белое золото
24. Прощай, Генри!

Сезон 4

1. Добро пожаловать в Корею
2. Смена командования
3. Однажды ночью
4. Покойный капитан Пирс
5. Эй, док!
6. Автобус
7. Дорогая Милдрет!
8. Дети
9. Камо грядеши, капитан Чандлер?
10. Дорогая Пегги!
11. Муза и люди
12. Солдат месяца
13. Пистолет
14. Снова почта!
15. Цена томатного сока
16. Дорогая мама
17. Der Tag
18. Ястреб
19. Где-то на 38й параллели
20. Новокаиновый мятеж
21. Улыбающийся Джек
22. Я тебя никогда не увижу...
23. 33 несчастья
24. Интервью

Сезон 5

1. Отступление
2. Помолвка Маргарет
3. С глаз долой, из сердца вон...
4. Лейтенант Радар О'Рейли
5. Сестры
6. Похищение Маргарет Халиган
7. Дорогой Зигмунд!
8. Война Мулкахи
9. Корейский хирург
10. Ястреб, возьми оружие!
11. Лошадь полковника
12. Злые духи
13. Кошмары Ястреба
14. Самый любимый персонаж
15. 5 слов, на 'В'...
16. Пинг-Понг
17. Финиш
18. Трали-вали
19. Гепатит
20. Личный врач
21. Вечерний сеанс
22. Сувениры
23. Послеоперационная
24. Свадьба Маргарет

Сезон 6

1. Кто-то уходит, кто-то приходит...
2. Падший идол
3. Прощальная шутка
4. Война нервов
5. Пленки Винчестера
6. Пролившийся свет
7. В любви и на войне
8. День обмена
9. Картинки
10. Олимпиада MASH
11. Старик с косой
12. Братья по оружию - 1
13. Братья по оружию - 2
14. Корейский купец
15. Запахи музыки
16. Зажим 4077
17. Чай и сочувствие
18. По вашим просьбам
19. Как дела, док?
20. Почта - 3
21. Временное назначение
22. Отставка Поттера
23. Доктор Винчестер и мистер Хайд
24. Главный шутник

Сезон 7

1. Командир Пирс
2. Мир нам
3. Лил
4. Наш лучший час
5. Синдром бумажника
6. Никто не любит погорячее
7. Ветра Кореи
8. Эгоист
9. Детка, снаружи холодно
10. Точка зрения
11. Товарищ командир!
12. Без горючего
13. Глаз за зуб
14. Дорогая сестра!
15. Би-Джей Папа-сан
16. Инга
17. Цена
18. Молодые и неугомонные
19. Горячие Губки снова в городе
20. Пещера
21. Поиздеваемся над Флеггом, ребята!
22. Профилактика
23. Ночь у Рози
24. Разве любовь не прекрасна?
25. Встреча

Сезон 8

1. Слишком вкусно
2. Ты готова, Маргарет?
3. Партизанка моей мечты
4. Прощай, Радар (часть 1)
5. Прощай, Радар (часть 2)
6. Привыкание
7. Сестра
8. Личные сбережения
9. Мистер и миссис кто?
10. Дорога из желтого кирпича
11. Время жизни
12. Дорогой дядя Абдул
13. Грозные капитаны
14. Статья
15. Да, сэр, это наш ребенок
16. Усталость от бутылки
17. Излечись сам
18. Старые солдаты
19. Моральная победа
20. Одолжить руку
21. Прощай, жестокий мир
22. Сны
23. Военный корреспондент
24. Задержанная оплата
25. С первым апреля!

Сезон 9

1. Лучший враг
2. Письма
3. Цементирование отношений
4. Отцовский день
5. Смерть в отгуле
6. Война на все времена
7. Сверхсрочная служба
8. Скажитеэто морпехам
9. Сладкая тайна
10. Операция "Дружба"
11. Без проблем
12. Печальные новости
13. Чего смеяться?
14. О, как мы танцуем
15. До дна
16. Красно-белый блюз
17. Будь здоров, Ястреб
18. Братья по крови
19. Сага Форсайтов
20. Жизнь, которую спасаеш

Сезон 10

1. Это - шоубизнес
2. Кризис личности
3. Слух дня
4. Задай им, Ястреб!
5. Водители и игроки
6. Разрыв отношений
7. Скорый суд
8. Самый скорый суд
9. На следующий день полсе Рождества
10. Причуды живых и заботы мертвых
11. Именинница
12. Кровь и потроха
13. Святая столовая
14. Да освободит тебя зуб!
15. Точки давления
16. где завещания, там и война
17. Суета из-за повышений
18. Герои
19. Сыновья иигроки в боулинг
20. Запечатали это
21. Козел и "капуста"

Сезон 11

1. Следи за мной
2. Фокус или лечение
3. Зарубежные дела
4. Дикий шутник
5. Кто знал?
6. Обстрел
7. Остаток долга
8. Луна не голубая
9. Бег за деньги
10. ООН, ночь и музыка
11. Случайный знакомый
12. Ни слова больше
13. Друзья и враги
14. Отдавать и брать
15. А времям идет
16. До свидиния, прощай и аминь
Для законченных фанатов - бонусы. Внимание - всё только на АНГЛИЙСКОМ ЯЗЫКЕ!

Три больших фильма посвященных сериалу:
MASH Bonus - 30th Anniversary Reunion (2002)
MASH Bonus - Television's Serious Sit-Com (2002)
MASH Bonus - Memories of MASH (1991)

И дополнительные материалы что были на дисках ДВД-версии:
MASH Bonus - Archival Interviews
MASH Bonus - Bloopers
MASH Bonus - Fan Base
MASH Bonus - Jocularity
MASH Bonus - Last Day of Filming
MASH Bonus - My Favorite MASH
MASH Bonus - PSAS advertising
MASH Bonus - Selected Episode Promos

Код:

Формат                                   : AVI
Формат/Информация                        : Audio Video Interleave
Размер файла                             : 344 Мбайт
Продолжительность                        : 25 м.
Общий поток                              : 1875 Кбит/сек
Название фильма                          : #1.13 - Edwina
Название фильма/Страна                   : США
Кодирование произвёл                     : MYury (myury@startrek.org.ua)
Жанр                                     : комедийный / военный
Ограничение по возрасту                  : NR (не проходило оценку)
Программа кодирования                    : GordianKnot + Adobe Audition
Носитель оригинала                       : диск DVD
Формат оригинала                         : цифровое видео
Формат оригинала/Имя                     : сериал
Авторское право                          : ©1972 Twenty Century Fox
IMIT                                     : Звук любезно предоставлен Bru

Видео
Идентификатор                            : 0
Формат                                   : MPEG-4 Visual
Параметр BVOP формата                    : 1
Параметр QPel формата                    : Нет
Параметр GMC формата                     : Без точки перехода
Параметр матрицы формата                 : Default (H.263)
Режим смешивания                         : Сжатый битовый поток
Идентификатор кодека                     : DX50
Идентификатор кодека/Подсказка           : DivX 5
Продолжительность                        : 25 м.
Битрейт                                  : 1665 Кбит/сек
Ширина                                   : 512 пикселей
Высота                                   : 384 пикселя
Соотношение сторон                       : 4:3
Частота кадров                           : 23,976 кадра/сек
Цветовое пространство                    : YUV
Субдискретизация насыщенности            : 4:2:0
Битовая глубина                          : 8 бит
Тип развёртки                            : Прогрессивная
Метод сжатия                             : С потерями
Бит/(Пиксели*Кадры)                      : 0.353
Размер потока                            : 305 Мбайт (89%)
Библиотека кодирования                   : DivX 5.1.1 (Maupiti) (UTC 2003-11-19)

Аудио #1
Идентификатор                            : 1
Формат                                   : MPEG Audio
Версия формата                           : Version 1
Профиль формата                          : Layer 3
Идентификатор кодека                     : 55
Идентификатор кодека/Подсказка           : MP3
Продолжительность                        : 25 м.
Вид битрейта                             : Постоянный
Битрейт                                  : 64,0 Кбит/сек
Каналы                                   : 1 канал
Частота                                  : 32,0 КГц
Метод сжатия                             : С потерями
Размер потока                            : 11,7 Мбайт (3%)
Выравнивание                             : Соединение по промежуткам
Продолжительность промежутка             : 42  мс. (1,00 видеокадр)
Время предзагрузки промежутка            : 504  мс.
Библиотека кодирования                   : LAME3.96
Настройки программы                      : -m m -V 4 -q 2 -lowpass 16 -b 64
Язык                                     : Русский + Английский

Аудио #2
Идентификатор                            : 2
Формат                                   : MPEG Audio
Версия формата                           : Version 1
Профиль формата                          : Layer 3
Идентификатор кодека                     : 55
Идентификатор кодека/Подсказка           : MP3
Продолжительность                        : 25 м.
Вид битрейта                             : Постоянный
Битрейт                                  : 64,0 Кбит/сек
Каналы                                   : 1 канал
Частота                                  : 32,0 КГц
Метод сжатия                             : С потерями
Размер потока                            : 11,7 Мбайт (3%)
Выравнивание                             : Соединение по промежуткам
Продолжительность промежутка             : 42  мс. (1,00 видеокадр)
Время предзагрузки промежутка            : 504  мс.

Аудио #3
Идентификатор                            : 3
Формат                                   : MPEG Audio
Версия формата                           : Version 1
Профиль формата                          : Layer 3
Идентификатор кодека                     : 55
Идентификатор кодека/Подсказка           : MP3
Продолжительность                        : 25 м.
Вид битрейта                             : Постоянный
Битрейт                                  : 64,0 Кбит/сек
Каналы                                   : 1 канал
Частота                                  : 32,0 КГц
Метод сжатия                             : С потерями
Размер потока                            : 11,7 Мбайт (3%)
Выравнивание                             : Соединение по промежуткам
Продолжительность промежутка             : 42  мс. (1,00 видеокадр)
Время предзагрузки промежутка            : 504  мс.
Библиотека кодирования                   : LAME3.90.3

Код:

Формат                                   : AVI
Формат/Информация                        : Audio Video Interleave
Размер файла                             : 344 Мбайт
Продолжительность                        : 26 м.
Общий поток                              : 1846 Кбит/сек
Программа кодирования                    : VirtualDubMod 1.5.10.1 (build 2439/release)
Библиотека кодирования                   : VirtualDubMod build 2439/release

Видео
Идентификатор                            : 0
Формат                                   : MPEG-4 Visual
Параметр BVOP формата                    : 1
Параметр QPel формата                    : Нет
Параметр GMC формата                     : Без точки перехода
Параметр матрицы формата                 : Default (H.263)
Режим смешивания                         : Сжатый битовый поток
Идентификатор кодека                     : DX50
Идентификатор кодека/Подсказка           : DivX 5
Продолжительность                        : 26 м.
Битрейт                                  : 1540 Кбит/сек
Ширина                                   : 512 пикселей
Высота                                   : 384 пикселя
Соотношение сторон                       : 4:3
Частота кадров                           : 23,976 кадра/сек
Цветовое пространство                    : YUV
Субдискретизация насыщенности            : 4:2:0
Битовая глубина                          : 8 бит
Тип развёртки                            : Прогрессивная
Метод сжатия                             : С потерями
Бит/(Пиксели*Кадры)                      : 0.327
Размер потока                            : 287 Мбайт (83%)
Библиотека кодирования                   : DivX 5.1.1 (Maupiti) (UTC 2003-11-19)

Аудио #1
Идентификатор                            : 1
Формат                                   : MPEG Audio
Версия формата                           : Version 1
Профиль формата                          : Layer 3
Идентификатор кодека                     : 55
Идентификатор кодека/Подсказка           : MP3
Продолжительность                        : 26 м.
Вид битрейта                             : Постоянный
Битрейт                                  : 96,0 Кбит/сек
Каналы                                   : 1 канал
Частота                                  : 32,0 КГц
Метод сжатия                             : С потерями
Размер потока                            : 17,9 Мбайт (5%)
Выравнивание                             : Соединение по промежуткам
Продолжительность промежутка             : 42  мс. (1,00 видеокадр)
Время предзагрузки промежутка            : 504  мс.
Библиотека кодирования                   : LAME3.96
Настройки программы                      : -m m -V 4 -q 2 -lowpass 16 -b 96

Аудио #2
Идентификатор                            : 2
Формат                                   : MPEG Audio
Версия формата                           : Version 1
Профиль формата                          : Layer 3
Идентификатор кодека                     : 55
Идентификатор кодека/Подсказка           : MP3
Продолжительность                        : 26 м.
Вид битрейта                             : Постоянный
Битрейт                                  : 96,0 Кбит/сек
Каналы                                   : 1 канал
Частота                                  : 32,0 КГц
Метод сжатия                             : С потерями
Размер потока                            : 17,9 Мбайт (5%)
Выравнивание                             : Соединение по промежуткам
Продолжительность промежутка             : 42  мс. (1,00 видеокадр)
Время предзагрузки промежутка            : 504  мс.
Библиотека кодирования                   : LAME3.90.3

Аудио #3
Идентификатор                            : 3
Формат                                   : MPEG Audio
Версия формата                           : Version 1
Профиль формата                          : Layer 3
Идентификатор кодека                     : 55
Идентификатор кодека/Подсказка           : MP3
Продолжительность                        : 26 м.
Вид битрейта                             : Постоянный
Битрейт                                  : 96,0 Кбит/сек
Каналы                                   : 1 канал
Частота                                  : 32,0 КГц
Метод сжатия                             : С потерями
Размер потока                            : 17,9 Мбайт (5%)
Выравнивание                             : Соединение по промежуткам
Продолжительность промежутка             : 42  мс. (1,00 видеокадр)
Время предзагрузки промежутка            : 504  мс.
Библиотека кодирования                   : LAME3.90.3
Релиз: Born_in_USSR

picpicpicpicpic
Для увеличения картинки щелкните мышкой по превью

Этот торрент недоступен для скачивания без регистрации, однако доступен по публичной magnet-ссылке (источники с публичных трекеров). Перед использованием ссылки прочтите, пожалуйста Пользовательское соглашение, а также как можно дольше оставайтесь на раздаче! Для того, чтобы скачать сам торрент-файл (который видит больше источников), а также для того, чтобы поблагодарить релизера, вам необходимо зарегистрироваться. Если регистрироваться лень - вы можете также попробовать скачать релиз по нашим партнерским ссылкам ниже.

[underverse.su].t67360.torrent
Трекер: Зарегистрирован   [ 19.06.2016 14:20 ]  

Статус: проверено (by makkol at 24.06.2016 23:09)
Поблагодарили: пока никто не поблагодарил...
Тип торрента: публичный - доступные источники с открытых трекеров: 
Размер: 91,03 GB (занимает 20,79 DVDR, для записи нужно 21 болванка DVDR/RW)
 
 

Яндекс.Метрика powered by Sphinx


В Н И М А Н И Е
Сайт не распространяет и не хранит электронные версии произведений, а лишь бесплатно и без коммерческой выгоды (не требуя взамен платы,
SMS и т.д.) предоставляет доступ к создаваемому пользователями каталогу ссылок на торрент-файлы, которые содержат только списки хеш-сумм.
Убедительная просьба с жалобами обращаться напрямую к пользователю, разместившему торрент файл.

Вверх