Loading...
Error

В воздухе / Aloft (Клаудия Льоса) [2014 г., драма, HDRip] MVO

Статистика раздачи
Размер:  1,37 GB   |    Зарегистрирован:  5 месяцев 20 дней   |    Скачан:  11 раз
Сидов:  1  |  0 KB/s  ]   Личеров:  0  |  0 KB/s  ]

* - сиды/пиры с внешних источников

   
 
Автор Сообщение

makkol Пол:Муж

19-Июн-2016 12:39

В воздухе / Aloft


Год выпуска: 2014
Жанр: драма
Производство: Испания , Канада , Франция [Wanda Visión S.A., Arcadia Motion Pictures, Buffalo Gal Pictures]
Режиссер: Клаудия Льоса
В ролях: Дженнифер Коннелли, Киллиан Мёрфи, Мелани Лоран, Уна Чаплин, Питер МакРобби, Иэн Трейси, Зен МакГрат, Уильям Шимелл, Винта МакГрат, Энди Мюррэй
Сюжет фильма:
Иван — маленький мальчик, его мама, Нана, работает на ферме. Она заботится о нем и о его младшем брате Галли, чье психическое состояние ухудшается из-за изнурительной болезни. Однажды к ним приезжает целитель, благодаря которому Нана обнаруживает свои собственные целительные силы…

  • Мировая премьера: 12 февраля 2014


Качество видео: HDRip

Продолжительность: 01:36:41
Формат: AVI
Видео: XviD, 720x304 (2.35:1), 24.000 fps, 1634 kbps
Аудио: русский, профессиональный многоголосый закадровый (официальный звук), AC3 2.0, 48 kHz, 384 kbps

Код:

Формат                                   : AVI
Формат/Информация                        : Audio Video Interleave
Размер файла                             : 1,37 Гбайт
Продолжительность                        : 1 ч. 36 м.
Общий поток                              : 2027 Кбит/сек
Программа кодирования                    : VirtualDubMod 1.5.10.3 (build 2550/release)

Видео
Идентификатор                            : 0
Формат                                   : MPEG-4 Visual
Профиль формата                          : Advanced Simple@L5
Параметр BVOP формата                    : 2
Параметр QPel формата                    : Нет
Параметр GMC формата                     : Без точки перехода
Параметр матрицы формата                 : Выборочная
Идентификатор кодека                     : XVID
Идентификатор кодека/Подсказка           : XviD
Продолжительность                        : 1 ч. 36 м.
Битрейт                                  : 1634 Кбит/сек
Ширина                                   : 720 пикселей
Высота                                   : 304 пикселя
Соотношение сторон                       : 2,35:1
Частота кадров                           : 24,000 кадра/сек
Цветовое пространство                    : YUV
Субдискретизация насыщенности            : 4:2:0
Битовая глубина                          : 8 бит
Тип развёртки                            : Прогрессивная
Метод сжатия                             : С потерями
Бит/(Пиксели*Кадры)                      : 0.311
Размер потока                            : 1,10 Гбайт (81%)
Библиотека кодирования                   : XviD 1.2.1 (UTC 2008-12-04)

Аудио
Идентификатор                            : 1
Формат                                   : AC-3
Формат/Информация                        : Audio Coding 3
Расширение режима                        : CM (complete main)
Параметр Endianness формата              : Big
Идентификатор кодека                     : 2000
Продолжительность                        : 1 ч. 36 м.
Вид битрейта                             : Постоянный
Битрейт                                  : 384 Кбит/сек
Каналы                                   : 2 канала
Расположение каналов                     : Front: L R
Частота                                  : 48,0 КГц
Частота кадров                           : 31,250 кадров/сек (1536 spf)
Метод сжатия                             : С потерями
Размер потока                            : 266 Мбайт (19%)
Выравнивание                             : Разделение по промежуткам
Продолжительность промежутка             : 42  мс. (1,00 видеокадр)
Время предзагрузки промежутка            : 500  мс.
picpicpicpicpic
Для увеличения картинки щелкните мышкой по превью

Этот торрент недоступен для скачивания без регистрации, однако доступен по публичной magnet-ссылке (источники с публичных трекеров). Перед использованием ссылки прочтите, пожалуйста Пользовательское соглашение, а также как можно дольше оставайтесь на раздаче! Для того, чтобы скачать сам торрент-файл (который видит больше источников), а также для того, чтобы поблагодарить релизера, вам необходимо зарегистрироваться. Если регистрироваться лень - вы можете также попробовать скачать релиз по нашим партнерским ссылкам ниже.

[underverse.su].t67357.torrent
Трекер: Зарегистрирован   [ 19.06.2016 12:39 ]  

Статус: T временная (by makkol at 24.06.2016 23:06)
Поблагодарили: 1 человек
Тип торрента: публичный - доступные источники с открытых трекеров: 
Размер: 1,37 GB (занимает 0,31 DVDR, для записи нужно 1 болванка DVDR/RW)
 
 
Похожие темы
Форум Тема Автор Торрент Отв. Посл. сооб.
T Зарубежное кино [HDDVDRip / BDRip / WEB-DL / HDTV 1080/720р] В воздухе / Aloft (Клаудия Льоса) [2014 г., драма, BDRip 720p] MVO + Original makkol
1 | 0

0 | 626

7

19.06.2016 12:56

T Зарубежное кино [HDDVDRip / BDRip / WEB-DL / HDTV 1080/720р] В воздухе / Aloft (Клаудия Льоса) [2014 г., драма, BDRip 1080p] MVO + Original makkol
2 | 0

0 | 697

8

19.06.2016 13:06


Яндекс.Метрика powered by Sphinx


В Н И М А Н И Е
Сайт не распространяет и не хранит электронные версии произведений, а лишь бесплатно и без коммерческой выгоды (не требуя взамен платы,
SMS и т.д.) предоставляет доступ к создаваемому пользователями каталогу ссылок на торрент-файлы, которые содержат только списки хеш-сумм.
Убедительная просьба с жалобами обращаться напрямую к пользователю, разместившему торрент файл.

Вверх