Loading...
Error

Освободите Джимми / Free Jimmy / Slipp Jimmy fri (Кристофер Нилсен) [2006 г., мультфильм, комедия, DVDRip] MVO + AVO (Гоблин) + Original

Статистика раздачи
Размер:  1,45 GB   |    Зарегистрирован:  5 месяцев 18 дней   |    Скачан:  5 раз

Полного источника не было: 24 дня

Сидов:  0  |  0 KB/s  ]   Личеров:  0  |  0 KB/s  ]

* - сиды/пиры с внешних источников

   
 
Автор Сообщение

makkol Пол:Муж

18-Июн-2016 22:40

Освободите Джимми / Free Jimmy / Slipp Jimmy fri


Год выпуска: 2006
Жанр: мультфильм, комедия
Производство: Норвегия , Великобритания [Norsk FilmFond, Storm Studio]
Режиссер: Кристофер Нилсен
Роли озвучивали: Вуди Харрельсон, Саймон Пегг, Фил Дэниелс, Джей Симпсон, Кайл МакЛоклен, Саманта Мортон, Джим Броудбент, Эмилия Фокс, Крис Маршалл, Лиза Максвелл
Сюжет фильма:
Четверо «отвязных» рокеров — явных «отморозков» и психопатов, cлучайно попадают в бродячий цирк. Гвоздь цирковой программы — слон Джимми. Задача новых работничков — держать слона «под вечным кайфом» с помощью коктейля из наркотиков. Однако, слоник срывает все планы и накануне премьеры сбегает, не дождавшись «дозы». И начинается сумасшедшая гонка: проштрафившиеся парни должны нагнать Джимми, прежде, чем у того начнется «ломка» — а вы можете себе представить «ломку» у слона?!

В погоню за ними увязывается целая толпа — «зеленые» активисты, охотники-маньяки из Шотландии, мечтающие украсить гостиную головой слона и, наконец, лапландская мафия — «самые мерзкие люди на всем севере». Единственное спасение Джимми — добродушный лось, который встречается ему на пути. Поможет ли сохатый Джимми избавиться от пагубного пристрастия и кучки психов?

  • Мировая премьера: 21 апреля 2006


Качество видео: DVDRip

Продолжительность: 01:23:16
Формат: AVI
Видео: DivX, 720x400 (16:9), 25.000 fps, 1773 kbps
Аудио #1: русский, профессиональный многоголосый закадровый, AC3 5.1, 48 kHz, 448 kbps
Аудио #2: русский, авторский одноголосый закадровый (Дмитрий Пучков aka Гоблин), MP3 2.0, 48 kHz, 128 kbps
Аудио #3: английский, оригинал, MP3 2.0, 48 kHz, 128 kbps

Код:

Формат : DivX
Формат/Информация : Hack of AVI
Размер файла : 1,45 Гбайт
Продолжительность : 1 ч. 23 м.
Общий поток : 2496 Кбит/сек

Видео
Идентификатор : 0
Формат : MPEG-4 Visual
Параметр BVOP формата : 1
Параметр QPel формата : Нет
Параметр GMC формата : Без точки перехода
Параметр матрицы формата : Default (H.263)
Режим смешивания : Сжатый битовый поток
Идентификатор кодека : DX50
Идентификатор кодека/Подсказка : DivX 5
Продолжительность : 1 ч. 23 м.
Битрейт : 1773 Кбит/сек
Ширина : 720 пикс.
Высота : 400 пикс.
Соотношение сторон : 16:9
Частота кадров : 25,000 кадр/сек
Цветовое пространство : YUV
Подвыборка цветности : 4:2:0
Битовая глубина : 8 бит
Тип развёртки : Прогрессивная
Метод сжатия : С потерями
Бит/(Пиксели*Кадры) : 0.246
Размер потока : 1,03 Гбайт (71%)
Заголовок : Main
Библиотека кодирования : DivX 6.8.0 (UTC 2007-12-04)

Аудио #1
Идентификатор : 1
Формат : AC-3
Формат/Информация : Audio Coding 3
Расширение режима : CM (complete main)
Идентификатор кодека : 2000
Продолжительность : 1 ч. 23 м.
Вид битрейта : Постоянный
Битрейт : 448 Кбит/сек
Канал(ы) : 6 канала(ов)
Расположение каналов : Front: L C R, Side: L R, LFE
Частота : 48,0 КГц
Битовая глубина : 16 бит
Метод сжатия : С потерями
Размер потока : 267 Мбайт (18%)
Выравнивание : Разделение по промежуткам
Продолжительность промежутка : 40 мс. (1,00 видеокадр)
Время предзагрузки промежутка : 500 ms
Заголовок : Audio - ru

Аудио #2
Идентификатор : 2
Формат : MPEG Audio
Версия формата : Version 1
Профиль формата : Layer 3
Режим : Joint stereo
Расширение режима : MS Stereo
Идентификатор кодека : 55
Идентификатор кодека/Подсказка : MP3
Продолжительность : 1 ч. 23 м.
Вид битрейта : Постоянный
Битрейт : 128 Кбит/сек
Канал(ы) : 2 канала(ов)
Частота : 48,0 КГц
Метод сжатия : С потерями
Размер потока : 76,2 Мбайт (5%)
Выравнивание : Разделение по промежуткам
Продолжительность промежутка : 40 мс. (1,00 видеокадр)
Время предзагрузки промежутка : 500 ms
Заголовок : Audio - ru

Аудио #3
Идентификатор : 3
Формат : MPEG Audio
Версия формата : Version 1
Профиль формата : Layer 3
Режим : Joint stereo
Расширение режима : MS Stereo
Идентификатор кодека : 55
Идентификатор кодека/Подсказка : MP3
Продолжительность : 1 ч. 23 м.
Вид битрейта : Постоянный
Битрейт : 128 Кбит/сек
Канал(ы) : 2 канала(ов)
Частота : 48,0 КГц
Метод сжатия : С потерями
Размер потока : 76,2 Мбайт (5%)
Выравнивание : Разделение по промежуткам
Продолжительность промежутка : 40 мс. (1,00 видеокадр)
Время предзагрузки промежутка : 500 ms
Заголовок : Audio - en
picpicpicpicpic
Для увеличения картинки щелкните мышкой по превью

Этот торрент недоступен для скачивания без регистрации, однако доступен по публичной magnet-ссылке (источники с публичных трекеров). Перед использованием ссылки прочтите, пожалуйста Пользовательское соглашение, а также как можно дольше оставайтесь на раздаче! Для того, чтобы скачать сам торрент-файл (который видит больше источников), а также для того, чтобы поблагодарить релизера, вам необходимо зарегистрироваться. Если регистрироваться лень - вы можете также попробовать скачать релиз по нашим партнерским ссылкам ниже.

[underverse.su].t67351.torrent
Трекер: Зарегистрирован   [ 18.06.2016 22:40 ]  

Статус: проверено (by makkol at 18.06.2016 22:41)
Поблагодарили: пока никто не поблагодарил...
Тип торрента: публичный - доступные источники с открытых трекеров: 
Размер: 1,45 GB (занимает 1/3 DVDR, для записи нужно 1 болванка DVDR/RW)
 
 
Похожие темы
Форум Тема Автор Торрент Отв. Посл. сооб.
T Зарубежное кино [DVDRip, Low-Res HDRip, и т.д.] Освободитель / Libertador (Альберто Арвело / Alberto Arvelo) [2013 г., драма, биография, история, WEB-DLRip] DVO + hardsub 90ytr90
22 | 1

0 | 514

10

07.03.2015 13:22

T Зарубежное кино [DVDRip, Low-Res HDRip, и т.д.] Освободитель / Libertador (Альберто Арвело / Alberto Arvelo) [2013 г., драма, биография, история, WEB-DLRip] DVO + Original (Spa) + hardsub 90ytr90
0 | 0

0 | 605

8

07.03.2015 13:37

Архив Освободите Вилли: Побег из Пиратской бухты / Free Willy: Escape from Pirate's Cove (Уилл Гейджер/Will Geiger) [2010 г., семейный, DVDRip] GanibalKing
0 | 0

5 | 826

5

17.02.2011 14:46

Архив Освободите Вилли: Побег из Пиратской бухты / Free Willy: Escape from Pirate`s Cove (Уилл Гейджер) [2010 г., семейный, DVD-5] andrej-ku
0 | 0

1 | 729

0

17.02.2011 14:46


Яндекс.Метрика powered by Sphinx


В Н И М А Н И Е
Сайт не распространяет и не хранит электронные версии произведений, а лишь бесплатно и без коммерческой выгоды (не требуя взамен платы,
SMS и т.д.) предоставляет доступ к создаваемому пользователями каталогу ссылок на торрент-файлы, которые содержат только списки хеш-сумм.
Убедительная просьба с жалобами обращаться напрямую к пользователю, разместившему торрент файл.

Вверх