Loading...
Error

Большой скачок. Элемент жизни. Бионика. Власть паутины [2013 г., документальный, научно-познавательный, SatRip]

Статистика раздачи
Размер:  307 MB   |    Зарегистрирован:  5 месяцев 21 день   |    Скачан:  4 раза

Полного источника не было: 5 часов

Сидов:  0  |  0 KB/s  ]   Личеров:  0  |  0 KB/s  ]

* - сиды/пиры с внешних источников

   
 
Автор Сообщение

ARI71 Пол:Муж

17-Июн-2016 15:52

Большой скачок. Элемент жизни. Бионика. Власть паутины


Год выпуска: 2013
Жанр: документальный, научно-познавательный
Страна: Россия ОАО "Наука"
Режиссер: Алексей Гордеев
Ведущий: Михаил Маслов
Сюжет фильма:
Прототипом солнечных батарей являются подсолнухи, фотообъективы с переменной диафрагмой работают по принципу зрачка, а размер матрицы многих цифровых аппаратов - 22 мм, подобно сетчатке человеческого глаза. До недавнего времени, человек, изобретая новое, не догадывался что это "новое" - уже существует в природе, надо только увидеть и применить. Именно так и возникла наука бионика. "Большой скачок" — научно-популярный цикл документальных фильмов о достижениях российских ученых, уникальных разработках, технологиях будущего и настоящего, детальном рассмотрении обыденных вещей и процессов. Герои фильмов - учёные, инженеры, изобретатели, - люди, которые меняют наш мир день за днём. В цикле рассказывается и показывается, как устроен наш мир, как работают технологии, как создаются вещи, которые нас окружают. Главная цель - популяризация российской науки. Задача - легко и доступно рассказать зрителям о мире научных открытий, изобретениях, достижениях и новых технологиях. Миссия создателей - вовлечь зрителя в мир науки, удивить, просветить и расширить границы знаний и понимания явлений и процессов; показать закрытые структуры, проникнуть в засекреченные лаборатории, объяснить самые сложные научные и технологические процессы.
Качество видео: SatRip

Продолжительность: 00:26:14
Формат: AVI
Видео: XviD, 720x400, ~1500 kbps
Аудио: русский, (оригинал), AC3 2.0, ~128.00 kbps

Код:

Общее
Полное имя : D:\Vlast_pautiny.avi
Формат : AVI
Формат/Информация : Audio Video Interleave
Размер файла : 307 Мбайт
Продолжительность : 26 м.
Общий поток : 1638 Кбит/сек
Режиссёр : SATRip by Thunder
Программа кодирования : VirtualDubMod 1.5.10.3 | www.virtualdub-fr.org || (build 2550/release)
Формат оригинала/Имя : Documentary

Видео
Идентификатор : 0
Формат : MPEG-4 Visual
Профиль формата : Advanced Simple@L5
Параметр BVOP формата : 2
Параметр QPel формата : Нет
Параметр GMC формата : Без точки перехода
Параметр матрицы формата : Default (H.263)
Идентификатор кодека : XVID
Идентификатор кодека/Подсказка : XviD
Продолжительность : 26 м.
Битрейт : 1500 Кбит/сек
Ширина : 720 пикселей
Высота : 400 пикселей
Соотношение сторон : 16:9
Частота кадров : 25,000 кадров/сек
Цветовое пространство : YUV
Субдискретизация насыщенности : 4:2:0
Битовая глубина : 8 бит
Тип развёртки : Прогрессивная
Метод сжатия : С потерями
Бит/(Пиксели*Кадры) : 0.208
Размер потока : 281 Мбайт (92%)
Библиотека кодирования : XviD 1.2.1 (UTC 2008-12-04)

Аудио
Идентификатор : 1
Формат : AC-3
Формат/Информация : Audio Coding 3
Расширение режима : CM (complete main)
Параметр Endianness формата : Big
Идентификатор кодека : 2000
Продолжительность : 26 м.
Вид битрейта : Постоянный
Битрейт : 128 Кбит/сек
Каналы : 2 канала
Расположение каналов : Front: L R
Частота : 48,0 КГц
Частота кадров : 31,250 кадров/сек (1536 spf)
Метод сжатия : С потерями
Размер потока : 24,0 Мбайт (8%)
Выравнивание : Разделение по промежуткам
Продолжительность промежутка : 40 мс. (1,00 видеокадр)
Время предзагрузки промежутка : 500 мс.
picpicpicpicpic
Для увеличения картинки щелкните мышкой по превью

Этот торрент недоступен для скачивания без регистрации, однако доступен по публичной magnet-ссылке (источники с публичных трекеров). Перед использованием ссылки прочтите, пожалуйста Пользовательское соглашение, а также как можно дольше оставайтесь на раздаче! Для того, чтобы скачать сам торрент-файл (который видит больше источников), а также для того, чтобы поблагодарить релизера, вам необходимо зарегистрироваться. Если регистрироваться лень - вы можете также попробовать скачать релиз по нашим партнерским ссылкам ниже.

[underverse.su].t67333.torrent
Трекер: Зарегистрирован   [ 17.06.2016 15:52 ]  

Статус: проверено (by Паукан at 17.06.2016 16:42)
Поблагодарили: 1 человек
Тип торрента: публичный - доступные источники с открытых трекеров: 
Размер: 307 MB (занимает 0,07 DVDR, для записи нужно 1 болванка DVDR/RW)
 
 

Яндекс.Метрика powered by Sphinx


В Н И М А Н И Е
Сайт не распространяет и не хранит электронные версии произведений, а лишь бесплатно и без коммерческой выгоды (не требуя взамен платы,
SMS и т.д.) предоставляет доступ к создаваемому пользователями каталогу ссылок на торрент-файлы, которые содержат только списки хеш-сумм.
Убедительная просьба с жалобами обращаться напрямую к пользователю, разместившему торрент файл.

Вверх