Loading...
Error

Дивергент, глава 3: За стеной / Allegiant (Роберт Швентке) [2016 г., фантастика, боевик, WEB-DLRip] Dub (iTunes)

Статистика раздачи
Размер:  2,05 GB   |    Зарегистрирован:  5 месяцев 17 дней   |    Скачан:  56 раз

Полного источника не было: 1 день 3 часа

Сидов:  0  |  0 KB/s  ]   Личеров:  0  |  0 KB/s  ]

* - сиды/пиры с внешних источников

   
 
Автор Сообщение

makkol Пол:Муж

16-Июн-2016 22:23

Дивергент, глава 3: За стеной / Allegiant
«Забудь о границах»

Год выпуска: 2016
Жанр: фантастика, боевик
Производство: США [Lionsgate, Red Wagon Productions, Summit Entertainment]
Режиссер: Роберт Швентке
В ролях: Шайлин Вудли, Тео Джеймс, Наоми Уоттс, Дэниел Дэй Ким, Майлс Теллер, Зоэ Кравиц, Энсел Элгорт, Джонни Уэстон, Мэгги Кью, Джефф Дэниелс, Билл Скашгод, Надя Хилкер, Кортни Хоуп, Майкл Бисли, Рэйчел Хендрикс, Скотт Пойтресс
Сюжет фильма:
Трис и Фор впервые покидают город и своих близких и оказываются в опасном мире за стеной, отделяющей Чикаго, где им открывается шокирующая правда.
Они должны быстро разобраться, кому можно доверять, так как битва, разгорающаяся за стенами города, угрожает всему человечеству. Чтобы выжить, Трис придется сделать непростой выбор между мужеством, верностью, любовью и необходимостью идти на жертвы.

  • Мировая премьера: 8 марта 2016
  • Российская премьера: 10 марта 2016


Качество видео: WEB-DLRip

Продолжительность: 02:00:20
Формат: AVI
Видео: XviD, 720x400 (16:9), 24.000 fps, 2046 kbps
Аудио: русский, дублированный (iTunes), AC3 5.1, 48 kHz, 384 kbps

Код:

Формат                                   : AVI
Формат/Информация                        : Audio Video Interleave
Профиль формата                          : OpenDML
Размер файла                             : 2,05 Гбайт
Продолжительность                        : 2 ч. 0 м.
Общий поток                              : 2442 Кбит/сек
Программа кодирования                    : VirtualDubMod 1.5.10.2 (build 2540/release)
Библиотека кодирования                   : VirtualDubMod build 2540/release

Видео
Идентификатор                            : 0
Формат                                   : MPEG-4 Visual
Профиль формата                          : Advanced Simple@L5
Параметр BVOP формата                    : 2
Параметр QPel формата                    : Нет
Параметр GMC формата                     : Без точки перехода
Параметр матрицы формата                 : Выборочная
Идентификатор кодека                     : XVID
Идентификатор кодека/Подсказка           : XviD
Продолжительность                        : 2 ч. 0 м.
Битрейт                                  : 2046 Кбит/сек
Ширина                                   : 720 пикселей
Высота                                   : 400 пикселей
Соотношение сторон                       : 16:9
Частота кадров                           : 24,000 кадра/сек
Цветовое пространство                    : YUV
Субдискретизация насыщенности            : 4:2:0
Битовая глубина                          : 8 бит
Тип развёртки                            : Прогрессивная
Метод сжатия                             : С потерями
Бит/(Пиксели*Кадры)                      : 0.296
Размер потока                            : 1,72 Гбайт (84%)
Библиотека кодирования                   : XviD 1.2.1 (UTC 2008-12-04)

Аудио
Идентификатор                            : 1
Формат                                   : AC-3
Формат/Информация                        : Audio Coding 3
Расширение режима                        : CM (complete main)
Параметр Endianness формата              : Big
Идентификатор кодека                     : 2000
Продолжительность                        : 2 ч. 0 м.
Вид битрейта                             : Постоянный
Битрейт                                  : 384 Кбит/сек
Каналы                                   : 6 каналов
Расположение каналов                     : Front: L C R, Side: L R, LFE
Частота                                  : 48,0 КГц
Метод сжатия                             : С потерями
Размер потока                            : 331 Мбайт (16%)
Выравнивание                             : Разделение по промежуткам
Продолжительность промежутка             : 42  мс. (1,00 видеокадр)
Время предзагрузки промежутка            : 500  мс.
picpicpicpicpic
Для увеличения картинки щелкните мышкой по превью

Этот торрент недоступен для скачивания без регистрации, однако доступен по публичной magnet-ссылке (источники с публичных трекеров). Перед использованием ссылки прочтите, пожалуйста Пользовательское соглашение, а также как можно дольше оставайтесь на раздаче! Для того, чтобы скачать сам торрент-файл (который видит больше источников), а также для того, чтобы поблагодарить релизера, вам необходимо зарегистрироваться. Если регистрироваться лень - вы можете также попробовать скачать релиз по нашим партнерским ссылкам ниже.

[underverse.su].t67322.torrent
Трекер: Зарегистрирован   [ 16.06.2016 22:23 ]  

Статус: T временная (by makkol at 18.06.2016 22:59)
Поблагодарили: 1 человек
Тип торрента: публичный - доступные источники с открытых трекеров: 
Размер: 2,05 GB (занимает 0,47 DVDR, для записи нужно 1 болванка DVDR/RW)
 
 
Похожие темы
Форум Тема Автор Торрент Отв. Посл. сооб.
Зарубежное кино [DVDRip, Low-Res HDRip, и т.д.] Дивергент, глава 3: За стеной / Allegiant (Роберт Швентке / Robert Schwentke) [2016 г., фантастика, боевик, приключения, BDRip-AVC] Dub + Original (Eng) + Sub (Eng) 90ytr90
56 | 1

0 | 523

4

13.11.2016 17:03

Зарубежное кино [DVDRip, Low-Res HDRip, и т.д.] Дивергент, глава 3: За стеной / Allegiant (Роберт Швентке / Robert Schwentke) [2016 г., фантастика, боевик, приключения, HDRip] Dub (Централ Партнершип) 90ytr90
316 | 5

0 | 478

3

13.11.2016 15:32

Зарубежное кино [DVDRip, Low-Res HDRip, и т.д.] Дивергент, глава 2: Инсургент / Insurgent (Роберт Швентке) [2015 г., фантастика, триллер, приключения, HDTVRip] Dub IlyaSaint
664 | 7

4 | 2556

309

07.08.2015 23:05

Зарубежное кино [DVDRip, Low-Res HDRip, и т.д.] Дивергент, глава 2: Инсургент / Insurgent (Роберт Швентке) [2015 г., фантастика, триллер, приключения, HDRip] Dub (Line) + Original makkol
99 | 0

0 | 970

99

23.07.2015 14:45

Зарубежное кино [DVDRip, Low-Res HDRip, и т.д.] Дивергент, глава 3: За стеной / Allegiant (Роберт Швентке / Robert Schwentke) [2016 г., фантастика, боевик, приключения, HDRip] Dub 90ytr90
540 | 9

0 | 480

29

04.07.2016 20:05

Зарубежное кино [HDDVDRip / BDRip / WEB-DL / HDTV 1080/720р] Дивергент, глава 3: За стеной / Allegiant (Роберт Швентке / Robert Schwentke) [2016 г., фантастика, боевик, приключения, BDRip 1080p] Dub (Централ Партнершип) + Original (Eng) + Sub (Eng) 90ytr90
32 | 3

0 | 455

2

13.11.2016 18:02

Зарубежное кино [HDDVDRip / BDRip / WEB-DL / HDTV 1080/720р] Дивергент, глава 3: За стеной / Allegiant (Роберт Швентке / Robert Schwentke) [2016 г., фантастика, боевик, приключения, BDRip 1080p] Dub (Централ Партнершип) + Original (Eng) + Sub (Eng) 90ytr90
115 | 16

0 | 460

1

13.11.2016 17:55

Зарубежное кино [HDDVDRip / BDRip / WEB-DL / HDTV 1080/720р] Дивергент, глава 3: За стеной / Allegiant (Роберт Швентке / Robert Schwentke) [2016 г., фантастика, боевик, приключения, BDRip 720p] Dub (Централ Партнершип) + Original (Eng) + Sub (Eng) 90ytr90
20 | 0

0 | 455

3

13.11.2016 17:46

Зарубежное кино [HDDVDRip / BDRip / WEB-DL / HDTV 1080/720р] Дивергент, глава 3: За стеной / Allegiant (Роберт Швентке / Robert Schwentke) [2016 г., фантастика, боевик, приключения, BDRip 720p] Dub (Централ Партнершип) + Original (Eng) + Sub (Eng) 90ytr90
39 | 1

0 | 450

3

13.11.2016 16:21

Зарубежное кино [HDDVDRip / BDRip / WEB-DL / HDTV 1080/720р] Дивергент, глава 2: Инсургент / Insurgent (Роберт Швентке) [2015 г., Фантастика, боевик, мелодрама, приключения, экранизация, HDTVRip 1080p] Dub (чистый звук) + Original romeoexpert
1 | 0

0 | 1127

94

17.07.2015 10:09


Яндекс.Метрика powered by Sphinx


В Н И М А Н И Е
Сайт не распространяет и не хранит электронные версии произведений, а лишь бесплатно и без коммерческой выгоды (не требуя взамен платы,
SMS и т.д.) предоставляет доступ к создаваемому пользователями каталогу ссылок на торрент-файлы, которые содержат только списки хеш-сумм.
Убедительная просьба с жалобами обращаться напрямую к пользователю, разместившему торрент файл.

Вверх