Loading...
Error

Переселение крабов с Дальнего Востока в Баренцево море (Андрей Александров) [2007 г., документальный, научно-познавательный, SatRip]

Статистика раздачи
Размер:  452 MB   |    Зарегистрирован:  5 месяцев 19 дней   |    Скачан:  1 раз

Полного источника не было: 4 месяца 24 дня

Сидов:  0  |  0 KB/s  ]   Личеров:  0  |  0 KB/s  ]

* - сиды/пиры с внешних источников

   
 
Автор Сообщение

ARI71 Пол:Муж

16-Июн-2016 20:32

Переселение крабов с Дальнего Востока в Баренцево море


Год выпуска: 2007
Жанр: документальный, научно-познавательный
Страна: Россия продюсерская компания "Республика СВ"
Режиссер: Андрей Александров
Сюжет фильма:
Камчатский краб один из самых крупных видов ракообразных. Внешне похож на краба, за что и получил свое название, однако в действительности он ближе к ракам-отшельникам. Камчатский краб это ценнейший промысловый вид, источник диетического мяса с неповторимым вкусом и едва уловимым морским ароматом. Различные блюда, приготовленные из мяса краба с каждым годом становятся более популярными. По некоторым данным этот вид добывали ещё в XIX веке у берегов Японии местными жителями. Однако только в прошлом веке начался настоящий ажиотаж вокруг столь ценного ресурса.
В фильме описываются последствия эксперимента по переселению камчатских крабов с Дальнего Востока в Баренцево море.

Качество видео: SatRip

Продолжительность: 00:33:33
Формат: AVI
Видео: XviD, 672x416, ~1746 kbps
Аудио: русский, (оригинал), MP3 2.0, ~128.00 kbps

Код:

Общее
Полное имя : D:\Pereselenie.krabov.s.Dalnego.Vostoka.v.Barencovo.nore.2007.XviD.SATRip.avi
Формат : AVI
Формат/Информация : Audio Video Interleave
Размер файла : 452 Мбайт
Продолжительность : 33 м.
Общий поток : 1884 Кбит/сек
Программа кодирования : VirtualDubMod 1.5.10.3 | www.virtualdub-fr.org || (build 2550/release)
Библиотека кодирования : VirtualDubMod build 2550/release

Видео
Идентификатор : 0
Формат : MPEG-4 Visual
Профиль формата : Advanced Simple@L5
Параметр BVOP формата : 3
Параметр QPel формата : Да
Параметр GMC формата : 3 точки перехода
Параметр матрицы формата : Default (H.263)
Идентификатор кодека : XVID
Идентификатор кодека/Подсказка : XviD
Продолжительность : 33 м.
Битрейт : 1746 Кбит/сек
Ширина : 672 пикселя
Высота : 416 пикселей
Соотношение сторон : 16:10
Частота кадров : 25,000 кадров/сек
Цветовое пространство : YUV
Субдискретизация насыщенности : 4:2:0
Битовая глубина : 8 бит
Тип развёртки : Прогрессивная
Метод сжатия : С потерями
Бит/(Пиксели*Кадры) : 0.250
Размер потока : 419 Мбайт (93%)
Библиотека кодирования : XviD 1.2.1 (UTC 2008-12-04)

Аудио
Идентификатор : 1
Формат : MPEG Audio
Версия формата : Version 1
Профиль формата : Layer 3
Идентификатор кодека : 55
Идентификатор кодека/Подсказка : MP3
Продолжительность : 33 м.
Вид битрейта : Постоянный
Битрейт : 128 Кбит/сек
Каналы : 2 канала
Частота : 48,0 КГц
Метод сжатия : С потерями
Размер потока : 30,7 Мбайт (7%)
Выравнивание : Соединение по промежуткам
Продолжительность промежутка : 40 мс. (1,00 видеокадр)
Время предзагрузки промежутка : 504 мс.
Библиотека кодирования : LAME3.98r
Настройки программы : -m s -V 4 -q 2 -lowpass 17 -b 128
picpicpicpicpic
Для увеличения картинки щелкните мышкой по превью

Этот торрент недоступен для скачивания без регистрации, однако доступен по публичной magnet-ссылке (источники с публичных трекеров). Перед использованием ссылки прочтите, пожалуйста Пользовательское соглашение, а также как можно дольше оставайтесь на раздаче! Для того, чтобы скачать сам торрент-файл (который видит больше источников), а также для того, чтобы поблагодарить релизера, вам необходимо зарегистрироваться. Если регистрироваться лень - вы можете также попробовать скачать релиз по нашим партнерским ссылкам ниже.

[underverse.su].t67316.torrent
Трекер: Зарегистрирован   [ 16.06.2016 20:32 ]  

Статус: проверено (by makkol at 16.06.2016 22:13)
Поблагодарили: пока никто не поблагодарил...
Тип торрента: публичный - доступные источники с открытых трекеров: 
Размер: 452 MB (занимает 0,1 DVDR, для записи нужно 1 болванка DVDR/RW)
 
 

Яндекс.Метрика powered by Sphinx


В Н И М А Н И Е
Сайт не распространяет и не хранит электронные версии произведений, а лишь бесплатно и без коммерческой выгоды (не требуя взамен платы,
SMS и т.д.) предоставляет доступ к создаваемому пользователями каталогу ссылок на торрент-файлы, которые содержат только списки хеш-сумм.
Убедительная просьба с жалобами обращаться напрямую к пользователю, разместившему торрент файл.

Вверх