Loading...
Error

Парадокс / Paradox (Майкл Херст) [2016 г., боевик, драма, HDRip] DVO

Статистика раздачи
Размер:  1,38 GB   |    Зарегистрирован:  5 месяцев 21 день   |    Скачан:  22 раза

Полного источника не было: 22 часа

Сидов:  0  |  0 KB/s  ]   Личеров:  0  |  0 KB/s  ]

* - сиды/пиры с внешних источников

   
 
Автор Сообщение

makkol Пол:Муж

16-Июн-2016 13:13

Парадокс / Paradox


Год выпуска: 2016
Жанр: боевик, драма
Производство: США [Benattar/Thomas Productions, Parkside Pictures, Tadross Media Group]
Режиссер: Майкл Херст
В ролях: Адам Хасс, Зои Белл, Мэлик Йоба, Бьорн Алекс Олсен, Брайан Флаккус, Майкл Аарон Миллиган, Джонатан Кэмп, Джеймс Логан, Кортни Комптон, Даррен Бэйли
Сюжет фильма:
Группа молодых ученых работают над секретным проектом, который может позволить им путешествовать во времени. Они посылают одного из своих членов вперед на один час. Вернувшись, он умоляет их закрыть проект...

  • Мировая премьера: 15 апреля 2016


Качество видео: HDRip

Продолжительность: 01:30:11
Формат: AVI
Видео: XviD, 720x400 (16:9), 23.976 fps, 1929 kbps
Аудио: русский, любительский двухголосый закадровый (RecentFilms), AC3 2.0, 48 kHz, 256 kbps

Код:

Формат                                   : AVI
Формат/Информация                        : Audio Video Interleave
Размер файла                             : 1,38 Гбайт
Продолжительность                        : 1 ч. 30 м.
Общий поток                              : 2195 Кбит/сек
Программа кодирования                    : VirtualDubMod 1.5.10.2 (build 2540/release)
Библиотека кодирования                   : VirtualDubMod build 2540/release

Видео
Идентификатор                            : 0
Формат                                   : MPEG-4 Visual
Профиль формата                          : Advanced Simple@L5
Параметр BVOP формата                    : 2
Параметр QPel формата                    : Нет
Параметр GMC формата                     : Без точки перехода
Параметр матрицы формата                 : Default (H.263)
Режим смешивания                         : Сжатый битовый поток
Идентификатор кодека                     : XVID
Идентификатор кодека/Подсказка           : XviD
Продолжительность                        : 1 ч. 30 м.
Битрейт                                  : 1929 Кбит/сек
Ширина                                   : 720 пикселей
Высота                                   : 400 пикселей
Соотношение сторон                       : 16:9
Частота кадров                           : 23,976 (24000/1001) кадра/сек
Цветовое пространство                    : YUV
Субдискретизация насыщенности            : 4:2:0
Битовая глубина                          : 8 бит
Тип развёртки                            : Прогрессивная
Метод сжатия                             : С потерями
Бит/(Пиксели*Кадры)                      : 0.279
Размер потока                            : 1,22 Гбайт (88%)
Библиотека кодирования                   : XviD 67

Аудио
Идентификатор                            : 1
Формат                                   : AC-3
Формат/Информация                        : Audio Coding 3
Расширение режима                        : CM (complete main)
Параметр Endianness формата              : Big
Идентификатор кодека                     : 2000
Продолжительность                        : 1 ч. 30 м.
Вид битрейта                             : Постоянный
Битрейт                                  : 256 Кбит/сек
Каналы                                   : 2 канала
Расположение каналов                     : Front: L R
Частота                                  : 48,0 КГц
Частота кадров                           : 31,250 кадров/сек (1536 spf)
Метод сжатия                             : С потерями
Размер потока                            : 165 Мбайт (12%)
Выравнивание                             : Разделение по промежуткам
Продолжительность промежутка             : 42  мс. (1,00 видеокадр)
Время предзагрузки промежутка            : 500  мс.
Присутствует реклама


picpicpicpicpic
Для увеличения картинки щелкните мышкой по превью

Этот торрент недоступен для скачивания без регистрации, однако доступен по публичной magnet-ссылке (источники с публичных трекеров). Перед использованием ссылки прочтите, пожалуйста Пользовательское соглашение, а также как можно дольше оставайтесь на раздаче! Для того, чтобы скачать сам торрент-файл (который видит больше источников), а также для того, чтобы поблагодарить релизера, вам необходимо зарегистрироваться. Если регистрироваться лень - вы можете также попробовать скачать релиз по нашим партнерским ссылкам ниже.

[underverse.su].t67304.torrent
Трекер: Зарегистрирован   [ 16.06.2016 13:13 ]  

Статус: проверено (by makkol at 18.06.2016 22:58)
Поблагодарили: 1 человек
Тип торрента: публичный - доступные источники с открытых трекеров: 
Размер: 1,38 GB (занимает 0,32 DVDR, для записи нужно 1 болванка DVDR/RW)
 
 
Похожие темы
Форум Тема Автор Торрент Отв. Посл. сооб.
Зарубежное кино [HDDVDRip / BDRip / WEB-DL / HDTV 1080/720р] Парадокс / Paradox (Майкл Херст) [2016 г., боевик, драма, WEB-DL 1080p] DVO + Original makkol
16 | 0

0 | 868

19

17.06.2016 14:45

Архив Парадокс / Paradox / Season 1 (1-5 серии) (Саймон Селлан Джоунс, Омар Мадха) [2010 г., детектив, мистика, триллер, HDTVRip] oartemka178
0 | 0

2 | 1355

6

05.11.2011 14:45


Яндекс.Метрика powered by Sphinx


В Н И М А Н И Е
Сайт не распространяет и не хранит электронные версии произведений, а лишь бесплатно и без коммерческой выгоды (не требуя взамен платы,
SMS и т.д.) предоставляет доступ к создаваемому пользователями каталогу ссылок на торрент-файлы, которые содержат только списки хеш-сумм.
Убедительная просьба с жалобами обращаться напрямую к пользователю, разместившему торрент файл.

Вверх