Loading...
Error

Чудеса с небес / Miracles from Heaven (Патрисия Ригген) [2016 г., драма, WEB-DLRip] MVO (iTunes)

Статистика раздачи
Размер:  1,37 GB   |    Зарегистрирован:  5 месяцев 23 дня   |    Скачан:  14 раз

Полного источника не было: 6 часов

Сидов:  0  |  0 KB/s  ]   Личеров:  0  |  0 KB/s  ]

* - сиды/пиры с внешних источников

   
 
Автор Сообщение

makkol Пол:Муж

15-Июн-2016 21:43

Чудеса с небес / Miracles from Heaven


Год выпуска: 2016
Жанр: драма
Производство: США [Affirm Films, TriStar Pictures]
Режиссер: Патрисия Ригген
В ролях: Дженнифер Гарнер, Кайли Роджерс, Мартин Хендерсон, Брайтон Шарбино, Кортни Фанслер, Куин Латифа, Брайс Зенткович, Эухенио Дербес, Келли Коллинз, Джон Кэрролл Линч
Сюжет фильма:
Удивительная история, в которую невозможно поверить, не увидев собственными глазами. Когда кажется все потеряно, и впереди только боль и отчаяние, небеса дарят надежду тем, кто верит.

  • Мировая премьера: 16 марта 2016


Качество видео: WEB-DLRip

Продолжительность: 01:49:15
Формат: AVI
Видео: XviD, 720x384 (1.85:1), 23.976 fps, 1403 kbps
Аудио: русский, профессиональный многоголосый закадровый (iTunes), AC3 5.1, 48 kHz, 384 kbps

Код:

Формат                                   : AVI
Формат/Информация                        : Audio Video Interleave
Размер файла                             : 1,37 Гбайт
Продолжительность                        : 1 ч. 49 м.
Общий поток                              : 1795 Кбит/сек
Программа кодирования                    : VirtualDubMod 1.5.10.2 (build 2540/release)
Библиотека кодирования                   : VirtualDubMod build 2540/release

Видео
Идентификатор                            : 0
Формат                                   : MPEG-4 Visual
Профиль формата                          : Advanced Simple@L5
Параметр BVOP формата                    : 2
Параметр QPel формата                    : Нет
Параметр GMC формата                     : Без точки перехода
Параметр матрицы формата                 : Default (MPEG)
Идентификатор кодека                     : XVID
Идентификатор кодека/Подсказка           : XviD
Продолжительность                        : 1 ч. 49 м.
Битрейт                                  : 1403 Кбит/сек
Ширина                                   : 720 пикселей
Высота                                   : 384 пикселя
Соотношение сторон                       : 1,85:1
Частота кадров                           : 23,976 кадра/сек
Цветовое пространство                    : YUV
Субдискретизация насыщенности            : 4:2:0
Битовая глубина                          : 8 бит
Тип развёртки                            : Прогрессивная
Метод сжатия                             : С потерями
Бит/(Пиксели*Кадры)                      : 0.212
Размер потока                            : 1,07 Гбайт (78%)
Библиотека кодирования                   : XviD 1.2.1 (UTC 2008-12-04)

Аудио
Идентификатор                            : 1
Формат                                   : AC-3
Формат/Информация                        : Audio Coding 3
Расширение режима                        : CM (complete main)
Параметр Endianness формата              : Big
Идентификатор кодека                     : 2000
Продолжительность                        : 1 ч. 49 м.
Вид битрейта                             : Постоянный
Битрейт                                  : 384 Кбит/сек
Каналы                                   : 6 каналов
Расположение каналов                     : Front: L C R, Side: L R, LFE
Частота                                  : 48,0 КГц
Битовая глубина                          : 16 бит
Метод сжатия                             : С потерями
Размер потока                            : 299 Мбайт (21%)
Выравнивание                             : Разделение по промежуткам
Продолжительность промежутка             : 42  мс. (1,00 видеокадр)
Время предзагрузки промежутка            : 500  мс.
picpicpicpicpic
Для увеличения картинки щелкните мышкой по превью

Этот торрент недоступен для скачивания без регистрации, однако доступен по публичной magnet-ссылке (источники с публичных трекеров). Перед использованием ссылки прочтите, пожалуйста Пользовательское соглашение, а также как можно дольше оставайтесь на раздаче! Для того, чтобы скачать сам торрент-файл (который видит больше источников), а также для того, чтобы поблагодарить релизера, вам необходимо зарегистрироваться. Если регистрироваться лень - вы можете также попробовать скачать релиз по нашим партнерским ссылкам ниже.

[underverse.su].t67295.torrent
Трекер: Зарегистрирован   [ 15.06.2016 21:43 ]  

Статус: T временная (by makkol at 17.06.2016 23:47)
Поблагодарили: пока никто не поблагодарил...
Тип торрента: публичный - доступные источники с открытых трекеров: 
Размер: 1,37 GB (занимает 0,31 DVDR, для записи нужно 1 болванка DVDR/RW)
 
 
Похожие темы
Форум Тема Автор Торрент Отв. Посл. сооб.
T Зарубежное кино [DVDRip, Low-Res HDRip, и т.д.] Чудеса с небес / Miracles from Heaven (Патрисия Ригген / Patricia Riggen) [2016 г., драма, BDRip-AVC] MVO (iTunes) + Original (Eng) + Sub (Rus, Eng) 90ytr90
13 | 2

0 | 451

4

06.07.2016 15:20

T Зарубежное кино [DVDRip, Low-Res HDRip, и т.д.] Чудеса с небес / Miracles from Heaven (Патрисия Ригген / Patricia Riggen) [2016 г., драма, BDRip] MVO (iTunes) 90ytr90
77 | 1

0 | 470

7

06.07.2016 15:33

T Зарубежное кино [HDDVDRip / BDRip / WEB-DL / HDTV 1080/720р] Чудеса с небес / Miracles from Heaven (Патрисия Ригген) [2016 г., драма, WEB-DL 1080p] MVO (iTunes) + Original makkol
0 | 0

0 | 756

6

15.06.2016 21:53

T Зарубежное кино [HDDVDRip / BDRip / WEB-DL / HDTV 1080/720р] Чудеса с небес / Miracles from Heaven (Патрисия Ригген / Patricia Riggen) [2016 г., драма, BDRip 720p] MVO (iTunes) + Original (Eng) + Sub (Rus, Eng) 90ytr90
17 | 0

0 | 436

6

12.07.2016 17:42


Яндекс.Метрика powered by Sphinx


В Н И М А Н И Е
Сайт не распространяет и не хранит электронные версии произведений, а лишь бесплатно и без коммерческой выгоды (не требуя взамен платы,
SMS и т.д.) предоставляет доступ к создаваемому пользователями каталогу ссылок на торрент-файлы, которые содержат только списки хеш-сумм.
Убедительная просьба с жалобами обращаться напрямую к пользователю, разместившему торрент файл.

Вверх