Loading...
Error

Ведьма (Дмитрий Федоров) [2015 г., драма, триллер, HDTVRip]

Статистика раздачи
Размер:  1,37 GB   |    Зарегистрирован:  5 месяцев 17 дней   |    Скачан:  30 раз
Сидов:  1  |  0 KB/s  ]   Личеров:  0  |  0 KB/s  ]

* - сиды/пиры с внешних источников

   
 
Автор Сообщение

makkol Пол:Муж

15-Июн-2016 15:05

Ведьма


Год выпуска: 2015
Жанр: драма, триллер
Производство: Россия [Кинокомпания «Ракурс»]
Режиссер: Дмитрий Федоров
В ролях: Мария Баева, Анатолий Горячев, Дарья Екамасова, Пётр Коврижных, Ольга Сырцова, Всеволод Николаев, Полина Шашуро, Максим Максимов, Софи Шуткина, Маргарита Спасибо
Сюжет фильма:
Действие картины происходит в летнем молодёжном лагере у моря. Тоня — тихая, замкнутая и доверчивая девочка становится соседкой Людки — яркой, сильной и расчетливой девицы. Они влюбляются в одного мальчика. Кажется, что у робкой Тони нет никаких шансов против сексуальной Людки, но вдруг выясняется, что Тоня обладает сверхъестественными способностями, которые не может контролировать. Нелюдимый затравленный подросток, не понимающий природу своей страшной силы. Окружающие считают её самой настоящей ведьмой, не подозревая, что на самом деле ведьма не она…

Для кого-то эти каникулы станут последними, а те, кто смогут выжить — никогда уже не станут прежними…

  • Российская премьера: 23 июня 2015


Качество видео: HDTVRip

Продолжительность: 01:27:03
Формат: AVI
Видео: XviD, 720x400 (16:9), 25.000 fps, 2049 kbps
Аудио: русский, оригинал, AC3 2.0, 48 kHz, 192 kbps

Код:

Формат : AVI
Формат/Информация : Audio Video Interleave
Размер файла : 1,37 Гбайт
Продолжительность : 1 ч. 27 м.
Общий поток : 2250 Кбит/сек
Программа кодирования : VirtualDubMod 1.5.10.3 | www.virtualdub-fr.org || (build 2550/release)
Библиотека кодирования : VirtualDubMod build 2550/release

Видео
Идентификатор : 0
Формат : MPEG-4 Visual
Профиль формата : Advanced Simple@L5
Параметр BVOP формата : 2
Параметр QPel формата : Нет
Параметр GMC формата : Без точки перехода
Параметр матрицы формата : Default (MPEG)
Идентификатор кодека : XVID
Идентификатор кодека/Подсказка : XviD
Продолжительность : 1 ч. 27 м.
Битрейт : 2049 Кбит/сек
Ширина : 720 пикселей
Высота : 400 пикселей
Соотношение сторон : 16:9
Частота кадров : 25,000 кадров/сек
Цветовое пространство : YUV
Субдискретизация насыщенности : 4:2:0
Битовая глубина : 8 бит
Тип развёртки : Прогрессивная
Метод сжатия : С потерями
Бит/(Пиксели*Кадры) : 0.285
Размер потока : 1,25 Гбайт (91%)
Библиотека кодирования : XviD 1.2.1 (UTC 2008-12-04)

Аудио
Идентификатор : 1
Формат : AC-3
Формат/Информация : Audio Coding 3
Расширение режима : CM (complete main)
Параметр Endianness формата : Big
Идентификатор кодека : 2000
Продолжительность : 1 ч. 27 м.
Вид битрейта : Постоянный
Битрейт : 192 Кбит/сек
Каналы : 2 канала
Расположение каналов : Front: L R
Частота : 48,0 КГц
Частота кадров : 31,250 кадров/сек (1536 spf)
Метод сжатия : С потерями
Размер потока : 120 Мбайт (9%)
Выравнивание : Разделение по промежуткам
Продолжительность промежутка : 40 мс. (1,00 видеокадр)
Время предзагрузки промежутка : 500 мс.
picpicpicpicpic
Для увеличения картинки щелкните мышкой по превью

Этот торрент недоступен для скачивания без регистрации, однако доступен по публичной magnet-ссылке (источники с публичных трекеров). Перед использованием ссылки прочтите, пожалуйста Пользовательское соглашение, а также как можно дольше оставайтесь на раздаче! Для того, чтобы скачать сам торрент-файл (который видит больше источников), а также для того, чтобы поблагодарить релизера, вам необходимо зарегистрироваться. Если регистрироваться лень - вы можете также попробовать скачать релиз по нашим партнерским ссылкам ниже.

[underverse.su].t67286.torrent
Трекер: Зарегистрирован   [ 15.06.2016 15:05 ]  

Статус: проверено (by makkol at 17.06.2016 23:44)
Поблагодарили: пока никто не поблагодарил...
Тип торрента: публичный - доступные источники с открытых трекеров: 
Размер: 1,37 GB (занимает 0,31 DVDR, для записи нужно 1 болванка DVDR/RW)
 
 

Яндекс.Метрика powered by Sphinx


В Н И М А Н И Е
Сайт не распространяет и не хранит электронные версии произведений, а лишь бесплатно и без коммерческой выгоды (не требуя взамен платы,
SMS и т.д.) предоставляет доступ к создаваемому пользователями каталогу ссылок на торрент-файлы, которые содержат только списки хеш-сумм.
Убедительная просьба с жалобами обращаться напрямую к пользователю, разместившему торрент файл.

Вверх