Loading...
Error

Мидии в любви (Моллюски в любви) / L'amour des moules (Mussels in Love) / (Вилемик Клюйфхаут) [2012 г., документальный, познавательный, DVB] DVO

Статистика раздачи
Размер:  953 MB   |    Зарегистрирован:  5 месяцев 19 дней   |    Скачан:  3 раза

Полного источника не было: 3 месяца 17 дней

Сидов:  0  |  0 KB/s  ]   Личеров:  0  |  0 KB/s  ]

* - сиды/пиры с внешних источников

   
 
Автор Сообщение

ARI71 Пол:Муж

15-Июн-2016 09:45

Мидии в любви (Моллюски в любви) / L'amour des moules (Mussels in Love)


Год выпуска: 2012
Жанр: документальный, познавательный
Страна: Бельгия , Нидерланды "24 DOC"
Режиссер: Вилемик Клюйфхаут
Сюжет фильма:
Бельгийцы и французы с нетерпением ждут начала сезона устриц в голландской провинции Зееланд. Как же эти моллюски оказываются у нас на столе? И почему мы их так любим?


Качество видео: DVB

Продолжительность: 00:56:50
Формат: MKV
Видео: V_MPEG2, 720x576, ~2104 kbps
Аудио: русский, двухголосый закадровый (профессиональный), MP2 2.0, ~192.00 kbps

Код:

Общее
Уникальный идентификатор : 198353693902987718953538259320563857396 (0x953988286B7D21D3853D54CF024477F4)
Полное имя : D:\[apreder]L'amour_des_moules(2012)DVB.mkv
Формат : Matroska
Версия формата : Version 2
Размер файла : 953 Мбайт
Продолжительность : 56 м.
Режим общего битрейта : Переменный
Общий поток : 2343 Кбит/сек
Дата кодирования : UTC 2014-08-05 15:58:54
Программа кодирования : mkvmerge v7.1.0 ('Good Love') 64bit built on Jul 27 2014 13:06:55
Библиотека кодирования : libebml v1.3.0 + libmatroska v1.4.1

Видео
Идентификатор : 1
Формат : MPEG Video
Версия формата : Version 2
Профиль формата : Main@Main
Параметр BVOP формата : Да
Параметр матрицы формата : Выборочная
Параметр GOP формата : M=3, N=36
Структура изображения : Frame
Идентификатор кодека : V_MPEG2
Идентификатор кодека/Информация : MPEG 1 or 2 Video
Продолжительность : 56 м.
Вид битрейта : Переменный
Битрейт : 2104 Кбит/сек
Ширина : 720 пикселей
Высота : 576 пикселей
Соотношение сторон : 4:3
Режим частоты кадров : Постоянный
Частота кадров : 25,000 кадров/сек
Стандарт вещания : PAL
Цветовое пространство : YUV
Субдискретизация насыщенности : 4:2:0
Битовая глубина : 8 бит
Тип развёртки : Чересстрочная
Порядок развёртки : Верхнее поле первое
Метод сжатия : С потерями
Бит/(Пиксели*Кадры) : 0.203
Временной код первого кадра : 00:00:00:00
Оригинал временного кода : Group of pictures header
GOP, открыто/закрыто : Открыто
GOP, открыто/закрыто на первом кадре : Закрыто
Размер потока : 856 Мбайт (90%)
Default : Да
Forced : Нет

Аудио
Идентификатор : 2
Формат : MPEG Audio
Версия формата : Version 1
Профиль формата : Layer 2
Идентификатор кодека : A_MPEG/L2
Идентификатор кодека/Подсказка : MP2
Продолжительность : 56 м.
Вид битрейта : Постоянный
Битрейт : 192 Кбит/сек
Каналы : 2 канала
Частота : 48,0 КГц
Метод сжатия : С потерями
Размер потока : 78,1 Мбайт (8%)
Язык : Russian
Default : Да
Forced : Нет
picpicpicpicpic
Для увеличения картинки щелкните мышкой по превью

Этот торрент недоступен для скачивания без регистрации, однако доступен по публичной magnet-ссылке (источники с публичных трекеров). Перед использованием ссылки прочтите, пожалуйста Пользовательское соглашение, а также как можно дольше оставайтесь на раздаче! Для того, чтобы скачать сам торрент-файл (который видит больше источников), а также для того, чтобы поблагодарить релизера, вам необходимо зарегистрироваться. Если регистрироваться лень - вы можете также попробовать скачать релиз по нашим партнерским ссылкам ниже.

[underverse.su].t67283.torrent
Трекер: Зарегистрирован   [ 15.06.2016 09:45 ]  

Статус: проверено (by makkol at 15.06.2016 10:04)
Поблагодарили: пока никто не поблагодарил...
Тип торрента: публичный - доступные источники с открытых трекеров: 
Размер: 953 MB (занимает 0,21 DVDR, для записи нужно 1 болванка DVDR/RW)
 
 

Яндекс.Метрика powered by Sphinx


В Н И М А Н И Е
Сайт не распространяет и не хранит электронные версии произведений, а лишь бесплатно и без коммерческой выгоды (не требуя взамен платы,
SMS и т.д.) предоставляет доступ к создаваемому пользователями каталогу ссылок на торрент-файлы, которые содержат только списки хеш-сумм.
Убедительная просьба с жалобами обращаться напрямую к пользователю, разместившему торрент файл.

Вверх