Loading...
Error

Несносные леди / Mother's Day (Гэрри Маршалл) [2016 г., драма, комедия, WEB-DLRip] Dub (iTunes)

Статистика раздачи
Размер:  1,36 GB   |    Зарегистрирован:  5 месяцев 21 день   |    Скачан:  54 раза
Сидов:  2  |  0 KB/s  ]   Личеров:  0  |  0 KB/s  ]

* - сиды/пиры с внешних источников

   
 
Автор Сообщение

makkol Пол:Муж

14-Июн-2016 23:04

Несносные леди / Mother's Day
«Не угадаешь, что они выкинут завтра»

Год выпуска: 2016
Жанр: драма, комедия
Производство: США [Aperture Media Partner, Beatnik Films, Capacity Pictures, Gulfstream Pictures, May Day Movies]
Режиссер: Гэрри Маршалл
В ролях: Дженнифер Энистон, Джулия Робертс, Кейт Хадсон, Джейсон Судейкис, Тимоти Олифант, Шэй Митчелл, Калеб Браун, Брэндон Спинк, Сэм Маршалл, Сиена ЛаГамбина
Сюжет фильма:
Фитнес и шопинг, капризные предки и непослушные дети, завистливые подружки и надоевшие бывшие — милые составляющие настоящего женского счастья. А также мужского, если ты — отец-одиночка. И неважно, где и как сведет вас жизнь, если ты встретишь настоящую любовь. Главное — не сдаваться! Ведь судьба — это большой супермаркет, а не магазин на диване.

  • Мировая премьера: 13 апреля 2016
  • Российская премьера: 26 апреля 2016


Качество видео: WEB-DLRip

Продолжительность: 01:53:01
Формат: AVI
Видео: XviD, 720x384 (1.85:1), 25.000 fps, 1349 kbps
Аудио: русский, дублированный (iTunes), AC3 5.1, 48 kHz, 384 kbps

Код:

Формат                                   : AVI
Формат/Информация                        : Audio Video Interleave
Размер файла                             : 1,38 Гбайт
Продолжительность                        : 1 ч. 53 м.
Общий поток                              : 1742 Кбит/сек
Программа кодирования                    : VirtualDubMod 1.5.10.2 (build 2540/release)
Библиотека кодирования                   : VirtualDubMod build 2540/release

Видео
Идентификатор                            : 0
Формат                                   : MPEG-4 Visual
Профиль формата                          : Advanced Simple@L5
Параметр BVOP формата                    : 2
Параметр QPel формата                    : Нет
Параметр GMC формата                     : Без точки перехода
Параметр матрицы формата                 : Default (MPEG)
Идентификатор кодека                     : XVID
Идентификатор кодека/Подсказка           : XviD
Продолжительность                        : 1 ч. 53 м.
Битрейт                                  : 1349 Кбит/сек
Ширина                                   : 720 пикселей
Высота                                   : 384 пикселя
Соотношение сторон                       : 1,85:1
Частота кадров                           : 25,000 кадров/сек
Цветовое пространство                    : YUV
Субдискретизация насыщенности            : 4:2:0
Битовая глубина                          : 8 бит
Тип развёртки                            : Прогрессивная
Метод сжатия                             : С потерями
Бит/(Пиксели*Кадры)                      : 0.195
Размер потока                            : 1,06 Гбайт (77%)
Библиотека кодирования                   : XviD 1.2.1 (UTC 2008-12-04)

Аудио
Идентификатор                            : 1
Формат                                   : AC-3
Формат/Информация                        : Audio Coding 3
Расширение режима                        : CM (complete main)
Параметр Endianness формата              : Big
Идентификатор кодека                     : 2000
Продолжительность                        : 1 ч. 53 м.
Вид битрейта                             : Постоянный
Битрейт                                  : 384 Кбит/сек
Каналы                                   : 6 каналов
Расположение каналов                     : Front: L C R, Side: L R, LFE
Частота                                  : 48,0 КГц
Частота кадров                           : 31,250 кадров/сек (1536 spf)
Метод сжатия                             : С потерями
Размер потока                            : 310 Мбайт (22%)
Выравнивание                             : Разделение по промежуткам
Продолжительность промежутка             : 40  мс. (1,00 видеокадр)
Время предзагрузки промежутка            : 500  мс.
Релиз без рекламы


picpicpicpicpic
Для увеличения картинки щелкните мышкой по превью

Этот торрент недоступен для скачивания без регистрации, однако доступен по публичной magnet-ссылке (источники с публичных трекеров). Перед использованием ссылки прочтите, пожалуйста Пользовательское соглашение, а также как можно дольше оставайтесь на раздаче! Для того, чтобы скачать сам торрент-файл (который видит больше источников), а также для того, чтобы поблагодарить релизера, вам необходимо зарегистрироваться. Если регистрироваться лень - вы можете также попробовать скачать релиз по нашим партнерским ссылкам ниже.

[underverse.su].t67279.torrent
Трекер: Зарегистрирован   [ 14.06.2016 23:04 ]  

Статус: T временная (by makkol at 17.06.2016 23:40)
Поблагодарили: пока никто не поблагодарил...
Тип торрента: публичный - доступные источники с открытых трекеров: 
Размер: 1,36 GB (занимает 0,31 DVDR, для записи нужно 1 болванка DVDR/RW)
 
 
Похожие темы
Форум Тема Автор Торрент Отв. Посл. сооб.
Зарубежное кино [DVDRip, Low-Res HDRip, и т.д.] Несносные боссы / Horrible Bosses (Сет Гордон / Seth Gordon) [2011 г., комедия, криминал, BDRip] Dub 90ytr90
24 | 0

0 | 785

46

04.12.2014 15:42

T Зарубежное кино [DVDRip, Low-Res HDRip, и т.д.] Несносные боссы 2 / Horrible Bosses 2 (Шон Андерс / Sean Anders) [2014 г., комедия, HDRip] Dub (iTunes) + Original (Eng) 90ytr90
5 | 0

0 | 526

5

21.02.2015 09:58

T Зарубежное кино [DVDRip, Low-Res HDRip, и т.д.] Несносные боссы 2 / Horrible Bosses 2 (Шон Андерс / Sean Anders) [2014 г., комедия, BDRip-AVC] Dub (iTunes) + Original (Eng) + Sub (Rus, Eng) 90ytr90
7 | 0

0 | 517

6

21.02.2015 10:19

Зарубежное кино [DVDRip, Low-Res HDRip, и т.д.] Несносные боссы 2 / Horrible Bosses 2 (Шон Андерс / Sean Anders) [2014 г., комедия, BDRip] AVO (Гоблин) 90ytr90
3 | 0

0 | 531

10

23.02.2015 09:10

Зарубежное кино [DVDRip, Low-Res HDRip, и т.д.] Несносные боссы 2 / Horrible Bosses 2 (Шон Андерс / Sean Anders) [2014 г., комедия, BDRip-AVC] AVO (Гоблин) + Sub (Rus, Eng) 90ytr90
0 | 0

0 | 558

5

23.02.2015 09:21

T Зарубежное кино [DVDRip, Low-Res HDRip, и т.д.] Несносные боссы 2 / Horrible Bosses 2 (Шон Андерс / Sean Anders) [2014 г., комедия, HDRip] Dub (iTunes) 90ytr90
3 | 0

0 | 735

25

25.02.2015 20:09

Зарубежное кино [DVDRip, Low-Res HDRip, и т.д.] Несносные боссы 2 / Horrible Bosses 2 (Шон Андерс / Sean Anders) [2014 г., комедия, BDRip] Dub 90ytr90
17 | 0

0 | 549

15

06.03.2015 04:00

Зарубежное кино [DVDRip, Low-Res HDRip, и т.д.] Несносные боссы 2 / Horrible Bosses 2 (Шон Андерс / Sean Anders) [2014 г., комедия, BDRip-AVC] Dub + Sub (Rus) 90ytr90
0 | 0

0 | 567

8

06.03.2015 05:39

Зарубежное кино [DVDRip, Low-Res HDRip, и т.д.] Несносные боссы 2 / Horrible Bosses 2 (Шон Андерс / Sean Anders) [2014 г., комедия, BDRip-AVC] Dub + AVO (Гоблин) + Original (Eng) + Sub (Rus, Eng) 90ytr90
1 | 0

0 | 502

7

06.03.2015 05:50

Зарубежное кино [DVDRip, Low-Res HDRip, и т.д.] Несносные леди / Mother's Day (Гэрри Маршалл / Garry Marshall) [2016 г., драма, комедия, BDRip] Dub 90ytr90
68 | 2

0 | 403

17

21.08.2016 13:16


Яндекс.Метрика powered by Sphinx


В Н И М А Н И Е
Сайт не распространяет и не хранит электронные версии произведений, а лишь бесплатно и без коммерческой выгоды (не требуя взамен платы,
SMS и т.д.) предоставляет доступ к создаваемому пользователями каталогу ссылок на торрент-файлы, которые содержат только списки хеш-сумм.
Убедительная просьба с жалобами обращаться напрямую к пользователю, разместившему торрент файл.

Вверх