Loading...
Error

Охотники в небе. Истребители-асы Второй мировой / Hunters in the sky - Fighter Aces of WWII (Герберт Моллой Мейсон) / (13 серий из 13) [1991 г., документальный, авиация, война, история, DVDRip] VO + Original (Eng)

Статистика раздачи
Размер:  4,87 GB   |    Зарегистрирован:  4 месяца 20 дней   |    Скачан:  4 раза

Полного источника не было: 7 часов

Сидов:  0  |  0 KB/s  ]   Личеров:  0  |  0 KB/s  ]

* - сиды/пиры с внешних источников

   
 
Автор Сообщение

ARI71 Пол:Муж

14-Июн-2016 21:11

Охотники в небе. Истребители-асы Второй мировой / Hunters in the sky - Fighter Aces of WWII (13 серий из 13)


Год выпуска: 1991
Жанр: документальный, авиация, война, история
Страна: США
Перевод: русский, одноголосый закадровый (любительский) |den904|
Режиссер: Герберт Моллой Мейсон
Сюжет фильма:
Воздушный бой скоротечен. Секунды решают кто, объятый пламенем, падет на землю, а кто будет победителем. На воздушных аренах Второй Мировой войны только лучшие получили звание истребителей-асов. Документальный сериал о летчиках истребителях. Много уникальной кинохронники. Комментарии самых известных переживших войну пилотов из СССР, Японии, Англии, Германии, Канады, Австралии и США. Все театры войны. Вы увидите много кадров из кинохроник 30-х и 40-х СССР, Японии и других стран. Самые лучшие летчики времен Второй мировой войны предстанут перед нами. Узнайте больше о лучших-истребителях в этом интересном документальном сериале.
Качество видео: DVDRip

Продолжительность: 13 х ~ 00:22:25
Формат: AVI
Видео: 640x480 (1.33:1), 23.976 fps, XviD build 73 ~1993 kbps avg, 0.27 bit/pixel
Аудио #1: Русский 48 kHz, AC3 Dolby Digital, 2/0 (L,R) ch, ~192 kbps |den904|
Аудио #2: Английский 48 kHz, AC3 Dolby Digital, 2/0 (L,R) ch, ~192 kbps |оригинал|
(тех. данные всех серий идентичны)

Доп. информация: Авторство релиза - alf62
1. Небесные рыцари
В этой части рассказывается о личных качествах летчика-аса

2. Защищая Королевство
Летчики поверженных Польши, Франции, Дании и Норвегии вступили в рядах RAF в бой с фашистами в битве за Британию.

3. Восхождение Красной Звезды
Понеся сокрушительные потери в начале войны, советские ВВС выстояли, и завоевали полное превосходство в воздухе. Особенно интересно смотреть интервью с немецкими летчиками.

4. Тигры над Китаем
"Летающие тигры" - американские добровольцы воюют против японцев в небе Китая.

5. Ад на Тихом океане
Америка вступает в войну после разгрома на Перл-Харлборе.

6. Под всеми флагами
В этом эпизоде рассказывается об интернациональных эскадрильях RAF.

7. Большой друг, маленький друг
Рассказ о дальних бомбардировочных рейдах и истребителях сопровождения американцев.

8. Борьба за превосходство
Самолеты, двигатели, оружие и тактика непрерывно совершенствовались для обеспечения превосходства над противником.

9. Штурм Европы
Союзники начинают бить врага на Средиземноморье и в Западной Европе.

10. Замыкая круг
Воздушная война против Японии.

11. Падение третьего рейха
Последние бои советской авиации против нацистов.

12. Победа на Тихом океане
Заключительные бои над Тихим океаном

13. Воспоминания о войне
В заключительном эпизоде приводятся воспоминания бывших противников.

Код:

Общее
Полное имя : D:\Охотники.в.небе.1991.XviD.DVDRip.alf62\Охотники.в.небе.(01.серия.из.13).Небесные.рыцари.1991.XviD.DVDRip.alf62.avi
Формат : AVI
Формат/Информация : Audio Video Interleave
Размер файла : 384 Мбайт
Продолжительность : 22 м.
Общий поток : 2391 Кбит/сек
Программа кодирования : VirtualDubModRus 1.5.10.2 (build 2542/release)
Библиотека кодирования : VirtualDubMod build 2542/release

Видео
Идентификатор : 0
Формат : MPEG-4 Visual
Профиль формата : Advanced Simple@L5
Параметр BVOP формата : 2
Параметр QPel формата : Нет
Параметр GMC формата : Без точки перехода
Параметр матрицы формата : Default (MPEG)
Идентификатор кодека : XVID
Идентификатор кодека/Подсказка : XviD
Продолжительность : 22 м.
Битрейт : 1993 Кбит/сек
Ширина : 640 пикселей
Высота : 480 пикселей
Соотношение сторон : 4:3
Частота кадров : 23,976 (24000/1001) кадра/сек
Цветовое пространство : YUV
Субдискретизация насыщенности : 4:2:0
Битовая глубина : 8 бит
Тип развёртки : Прогрессивная
Метод сжатия : С потерями
Бит/(Пиксели*Кадры) : 0.271
Размер потока : 320 Мбайт (83%)
Библиотека кодирования : XviD 73

Аудио #1
Идентификатор : 1
Формат : AC-3
Формат/Информация : Audio Coding 3
Расширение режима : CM (complete main)
Параметр Endianness формата : Big
Идентификатор кодека : 2000
Продолжительность : 22 м.
Вид битрейта : Постоянный
Битрейт : 192 Кбит/сек
Каналы : 2 канала
Расположение каналов : Front: L R
Частота : 48,0 КГц
Частота кадров : 31,250 кадров/сек (1536 spf)
Метод сжатия : С потерями
Размер потока : 30,8 Мбайт (8%)
Выравнивание : Разделение по промежуткам
Продолжительность промежутка : 42 мс. (1,00 видеокадр)
Время предзагрузки промежутка : 500 мс.

Аудио #2
Идентификатор : 2
Формат : AC-3
Формат/Информация : Audio Coding 3
Расширение режима : CM (complete main)
Параметр Endianness формата : Big
Идентификатор кодека : 2000
Продолжительность : 22 м.
Вид битрейта : Постоянный
Битрейт : 192 Кбит/сек
Каналы : 2 канала
Расположение каналов : Front: L R
Частота : 48,0 КГц
Частота кадров : 31,250 кадров/сек (1536 spf)
Метод сжатия : С потерями
Размер потока : 30,8 Мбайт (8%)
Выравнивание : Разделение по промежуткам
Продолжительность промежутка : 42 мс. (1,00 видеокадр)
Время предзагрузки промежутка : 500 мс.
picpicpicpicpic
Для увеличения картинки щелкните мышкой по превью

Этот торрент недоступен для скачивания без регистрации, однако доступен по публичной magnet-ссылке (источники с публичных трекеров). Перед использованием ссылки прочтите, пожалуйста Пользовательское соглашение, а также как можно дольше оставайтесь на раздаче! Для того, чтобы скачать сам торрент-файл (который видит больше источников), а также для того, чтобы поблагодарить релизера, вам необходимо зарегистрироваться. Если регистрироваться лень - вы можете также попробовать скачать релиз по нашим партнерским ссылкам ниже.

[underverse.su].t68179.torrent
Трекер: Зарегистрирован   [ 18.07.2016 12:34 ]  

Статус: проверено (by makkol at 19.07.2016 20:37)
Поблагодарили: 1 человек
Тип торрента: публичный - доступные источники с открытых трекеров: 
Размер: 4,87 GB (занимает 1,11 DVDR, для записи нужно 2 болванки DVDR/RW)
 
 


Последний раз редактировалось: ARI71 (18.07.2016 12:33), всего редактировалось 3 раз(а)

ARI71 Пол:Муж

24-Июн-2016 03:49

Добавлены заключительные 9-я, 11-я и 13-я серии данного сериала. Обновите торрент-файл! На этом обновление раздачи завершено!!

Яндекс.Метрика powered by Sphinx


В Н И М А Н И Е
Сайт не распространяет и не хранит электронные версии произведений, а лишь бесплатно и без коммерческой выгоды (не требуя взамен платы,
SMS и т.д.) предоставляет доступ к создаваемому пользователями каталогу ссылок на торрент-файлы, которые содержат только списки хеш-сумм.
Убедительная просьба с жалобами обращаться напрямую к пользователю, разместившему торрент файл.

Вверх