Loading...
Error

Дневник адмирала Головко (Ирина Морозова) [2008 г., документально-постановочный, биография, история, SatRip]

Статистика раздачи
Размер:  556 MB   |    Зарегистрирован:  5 месяцев 26 дней   |    Скачан:  3 раза

Полного источника не было: 1 день 4 часа

Сидов:  0  |  0 KB/s  ]   Личеров:  0  |  0 KB/s  ]

* - сиды/пиры с внешних источников

   
 
Автор Сообщение

ARI71 Пол:Муж

14-Июн-2016 19:57

Дневник адмирала Головко


Год выпуска: 2008
Жанр: документально-постановочный, биография, история
Страна: Россия ООО "Фарватер фильм"
Режиссер: Ирина Морозова
Сюжет фильма:
Он был один из немногих, кто ослушался Сталина и ударил по немецким самолетам-разведчикам за 6 дней до начала войны, и если бы Гитлер не напал на СССР, Головко был бы расстрелян. В годы репрессий страх перед органами НКВД был огромен, но Головко, не испугавшись Берии, освободил заключенных, дал им оружие и послал на передовую. Он стал командующим северным флотом в 34 года, и когда началась война, не позволил врагу уничтожить вверенный ему флот, сделал всё, чтобы не пустить войска Вермахта на Кольский полуостров. 85 раз он вручал Золотую Звезду Героя Советского Союза краснофлотцам и офицерам, а сам так и не был удостоен этого высокого звания... даже посмертно.

Арсений Григорьевич Головко́ (1906 — 1962) — советский флотоводец, адмирал (1944). Бессменный командующий Северным флотом во время Великой Отечественной войны.

Качество видео: SatRip

Продолжительность: 00:38:48
Формат: AVI
Видео: XviD, 704x528, ~1801 kbps
Аудио: русский, (оригинал), MP3 2.0, ~192.00 kbps

Доп. информация: Авторство релиза - alf62

Код:

Общее
Полное имя : D:\Дневник.адмирала.Головко.2008.XviD.SATRip.alf62.avi
Формат : AVI
Формат/Информация : Audio Video Interleave
Размер файла : 556 Мбайт
Продолжительность : 38 м.
Общий поток : 2003 Кбит/сек
Программа кодирования : VirtualDubMod 1.5.10.3 | www.virtualdub-fr.org || (build 2550/release)
Библиотека кодирования : VirtualDubMod build 2550/release

Видео
Идентификатор : 0
Формат : MPEG-4 Visual
Профиль формата : Advanced Simple@L5
Параметр BVOP формата : 2
Параметр QPel формата : Нет
Параметр GMC формата : Без точки перехода
Параметр матрицы формата : Default (MPEG)
Идентификатор кодека : XVID
Идентификатор кодека/Подсказка : XviD
Продолжительность : 38 м.
Битрейт : 1801 Кбит/сек
Ширина : 704 пикселя
Высота : 528 пикселей
Соотношение сторон : 4:3
Частота кадров : 25,000 кадров/сек
Цветовое пространство : YUV
Субдискретизация насыщенности : 4:2:0
Битовая глубина : 8 бит
Тип развёртки : Прогрессивная
Метод сжатия : С потерями
Бит/(Пиксели*Кадры) : 0.194
Размер потока : 500 Мбайт (90%)
Библиотека кодирования : XviD 73

Аудио
Идентификатор : 1
Формат : MPEG Audio
Версия формата : Version 1
Профиль формата : Layer 3
Идентификатор кодека : 55
Идентификатор кодека/Подсказка : MP3
Продолжительность : 38 м.
Вид битрейта : Постоянный
Битрейт : 192 Кбит/сек
Каналы : 2 канала
Частота : 48,0 КГц
Метод сжатия : С потерями
Размер потока : 53,3 Мбайт (10%)
Выравнивание : Соединение по промежуткам
Продолжительность промежутка : 40 мс. (1,00 видеокадр)
Время предзагрузки промежутка : 504 мс.
Библиотека кодирования : LAME3.99r
Настройки программы : -m s -V 4 -q 0 -lowpass 18.6 -b 192
picpicpicpic
Для увеличения картинки щелкните мышкой по превью

Этот торрент недоступен для скачивания без регистрации, однако доступен по публичной magnet-ссылке (источники с публичных трекеров). Перед использованием ссылки прочтите, пожалуйста Пользовательское соглашение, а также как можно дольше оставайтесь на раздаче! Для того, чтобы скачать сам торрент-файл (который видит больше источников), а также для того, чтобы поблагодарить релизера, вам необходимо зарегистрироваться. Если регистрироваться лень - вы можете также попробовать скачать релиз по нашим партнерским ссылкам ниже.

[underverse.su].t67274.torrent
Трекер: Зарегистрирован   [ 14.06.2016 19:57 ]  

Статус: проверено (by makkol at 14.06.2016 22:14)
Поблагодарили: 1 человек
Тип торрента: публичный - доступные источники с открытых трекеров: 
Размер: 556 MB (занимает 0,12 DVDR, для записи нужно 1 болванка DVDR/RW)
 
 

Яндекс.Метрика powered by Sphinx


В Н И М А Н И Е
Сайт не распространяет и не хранит электронные версии произведений, а лишь бесплатно и без коммерческой выгоды (не требуя взамен платы,
SMS и т.д.) предоставляет доступ к создаваемому пользователями каталогу ссылок на торрент-файлы, которые содержат только списки хеш-сумм.
Убедительная просьба с жалобами обращаться напрямую к пользователю, разместившему торрент файл.

Вверх