Loading...
Error

Гремлины 2: Новенькая партия / Gremlins 2: The New Batch (Джо Данте) [1990 г., ужасы, комедия, BDRip] Dub + Original

Статистика раздачи
Размер:  2,07 GB   |    Зарегистрирован:  5 месяцев 23 дня   |    Скачан:  5 раз

Полного источника не было: 4 месяца 19 дней

Сидов:  0  |  0 KB/s  ]   Личеров:  0  |  0 KB/s  ]

* - сиды/пиры с внешних источников

   
 
Автор Сообщение

makkol Пол:Муж

14-Июн-2016 15:11

Гремлины 2: Новенькая партия / Gremlins 2: The New Batch


Год выпуска: 1990
Жанр: ужасы, комедия
Производство: США [Amblin Entertainment, Warner Bros. Pictures]
Режиссер: Джо Данте
В ролях: Зэк Гэллиган, Фиби Кейтс, Джон Гловер, Роберт Проски, Роберт Пикардо, Кристофер Ли, Хэвиленд Моррис, Дик Миллер, Джеки Джозеф, Гедде Ватанабе
Сюжет фильма:
На этот раз пушистый зверек Могвай прибывает в Нью-Йорк - и снова беспечные люди нарушают условия его содержания... И вот сотни гремлинов захватывают огромный телецентр и наводят ужас на весь город. А справиться с ними по силам лишь тем, кто выжил после первой части: они знают, что гремлинов трудно, но можно победить...

  • Мировая премьера: 15 июня 1990


Качество видео: BDRip

Продолжительность: 01:46:26
Формат: AVI
Видео: XviD, 720x400 (16:9), 23.976 fps, 2111 kbps
Аудио #1: русский, дублированный (Варус Видео), AC3 2.0, 48 kHz, 224 kbps
Аудио #2: английский, оригинал, AC3 5.1, 48 kHz, 448 kbps

Код:

Format : AVI
Format/Info : Audio Video Interleave
Format profile : OpenDML
File size : 2.07 GiB
Duration : 1h 46mn
Overall bit rate : 2 790 Kbps
Writing application : VirtualDubMod 1.5.10.3 (build 2550/release)
Writing library : VirtualDubMod build 2550/release

Video
ID : 0
Format : MPEG-4 Visual
Format profile : Advanced Simple@L5
Format settings, BVOP : 1
Format settings, QPel : No
Format settings, GMC : No warppoints
Format settings, Matrix : Default (H.263)
Codec ID : XVID
Codec ID/Hint : XviD
Duration : 1h 46mn
Bit rate : 2 100 Kbps
Width : 720 pixels
Height : 400 pixels
Display aspect ratio : 16:9
Frame rate : 23.976 fps
Color space : YUV
Chroma subsampling : 4:2:0
Bit depth : 8 bits
Scan type : Progressive
Compression mode : Lossy
Bits/(Pixel*Frame) : 0.304
Stream size : 1.56 GiB (75%)
Writing library : XviD 65

Audio #1
ID : 1
Format : AC-3
Format/Info : Audio Coding 3
Mode extension : CM (complete main)
Format settings, Endianness : Big
Codec ID : 2000
Duration : 1h 46mn
Bit rate mode : Constant
Bit rate : 224 Kbps
Channel(s) : 2 channels
Channel positions : Front: L R
Sampling rate : 48.0 KHz
Compression mode : Lossy
Stream size : 171 MiB (8%)
Alignment : Split accross interleaves
Interleave, duration : 42 ms (1.00 video frame)
Interleave, preload duratio : 500 ms

Audio #2
ID : 2
Format : AC-3
Format/Info : Audio Coding 3
Mode extension : CM (complete main)
Format settings, Endianness : Big
Codec ID : 2000
Duration : 1h 46mn
Bit rate mode : Constant
Bit rate : 448 Kbps
Channel(s) : 6 channels
Channel positions : Front: L C R, Side: L R, LFE
Sampling rate : 48.0 KHz
Compression mode : Lossy
Stream size : 341 MiB (16%)
Alignment : Split accross interleaves
Interleave, duration : 42 ms (1.00 video frame)
Interleave, preload duratio : 500 ms
picpicpicpic pic
Для увеличения картинки щелкните мышкой по превью

Этот торрент недоступен для скачивания без регистрации, однако доступен по публичной magnet-ссылке (источники с публичных трекеров). Перед использованием ссылки прочтите, пожалуйста Пользовательское соглашение, а также как можно дольше оставайтесь на раздаче! Для того, чтобы скачать сам торрент-файл (который видит больше источников), а также для того, чтобы поблагодарить релизера, вам необходимо зарегистрироваться. Если регистрироваться лень - вы можете также попробовать скачать релиз по нашим партнерским ссылкам ниже.

[underverse.su].t67269.torrent
Трекер: Зарегистрирован   [ 14.06.2016 15:11 ]  

Статус: проверено (by makkol at 17.06.2016 23:35)
Поблагодарили: пока никто не поблагодарил...
Тип торрента: публичный - доступные источники с открытых трекеров: 
Размер: 2,07 GB (занимает 0,47 DVDR, для записи нужно 1 болванка DVDR/RW)
 
 

Яндекс.Метрика powered by Sphinx


В Н И М А Н И Е
Сайт не распространяет и не хранит электронные версии произведений, а лишь бесплатно и без коммерческой выгоды (не требуя взамен платы,
SMS и т.д.) предоставляет доступ к создаваемому пользователями каталогу ссылок на торрент-файлы, которые содержат только списки хеш-сумм.
Убедительная просьба с жалобами обращаться напрямую к пользователю, разместившему торрент файл.

Вверх