Loading...
Error

Гремлины / Gremlins (Джо Данте) [1984 г., комедия, ужасы, BDRip] Dub + Subs

Статистика раздачи
Размер:  1,46 GB   |    Зарегистрирован:  5 месяцев 25 дней   |    Скачан:  3 раза

Полного источника не было: 5 месяцев 14 дней

Сидов:  0  |  0 KB/s  ]   Личеров:  0  |  0 KB/s  ]

* - сиды/пиры с внешних источников

   
 
Автор Сообщение

makkol Пол:Муж

14-Июн-2016 14:56

Гремлины / Gremlins
«Мы здесь!»

Год выпуска: 1984
Жанр: комедия, ужасы
Страна: США
Режиссер: Джо Данте
В ролях: Хойт Экстон, Джон Луи, Кей Люк, Дон Стил, Сьюзэн Бургесс, Скотт Брейди, Арни Мур, Кори Фельдман, Гарри Кэри мл., Зэк Гэллиган
Сюжет фильма:
Очаровательный пушистый зверек Магвай способен растрогать даже камень. Вдобавок, у него — абсолютный слух! Только будьте осторожны: он может погибнуть от солнечного света. На него нельзя брызгать водой. А что будет, если накормить его после полуночи, просто страшно себе представить…

  • Мировая премьера: 8 июня 1984


Качество видео: BDRip

Продолжительность: 01:46:16
Формат: AVI
Видео: XviD, 720x400 (16:9), 23.976 fps, 1759 kbps
Аудио: русский, дублированный (Варус Видео), AC3 2.0, 48 kHz, 192 kbps
Субтитры: русские, английские внешние, SRT

Код:

Format : AVI
Format/Info : Audio Video Interleave
File size : 1.46 GiB
Duration : 1h 46mn
Overall bit rate : 1 961 Kbps
Writing application : VirtualDubMod 1.5.10.3 (build 2550/release)
Writing library : VirtualDubMod build 2550/release

Video
ID : 0
Format : MPEG-4 Visual
Format profile : Advanced Simple@L5
Format settings, BVOP : 1
Format settings, QPel : No
Format settings, GMC : No warppoints
Format settings, Matrix : Custom
Codec ID : XVID
Codec ID/Hint : XviD
Duration : 1h 46mn
Bit rate : 1 759 Kbps
Width : 720 pixels
Height : 400 pixels
Display aspect ratio : 16:9
Frame rate : 23.976 fps
Color space : YUV
Chroma subsampling : 4:2:0
Bit depth : 8 bits
Scan type : Progressive
Compression mode : Lossy
Bits/(Pixel*Frame) : 0.255
Stream size : 1.31 GiB (90%)
Writing library : XviD 65

Audio
ID : 1
Format : AC-3
Format/Info : Audio Coding 3
Mode extension : CM (complete main)
Format settings, Endianness : Big
Codec ID : 2000
Duration : 1h 46mn
Bit rate mode : Constant
Bit rate : 192 Kbps
Channel count : 2 channels
Channel positions : Front: L R
Sampling rate : 48.0 KHz
Bit depth : 16 bits
Compression mode : Lossy
Stream size : 146 MiB (10%)
Alignment : Split accross interleaves
Interleave, duration : 42 ms (1.00 video frame)
Interleave, preload duration : 500 ms
picpicpicpicpic
Для увеличения картинки щелкните мышкой по превью

Этот торрент недоступен для скачивания без регистрации, однако доступен по публичной magnet-ссылке (источники с публичных трекеров). Перед использованием ссылки прочтите, пожалуйста Пользовательское соглашение, а также как можно дольше оставайтесь на раздаче! Для того, чтобы скачать сам торрент-файл (который видит больше источников), а также для того, чтобы поблагодарить релизера, вам необходимо зарегистрироваться. Если регистрироваться лень - вы можете также попробовать скачать релиз по нашим партнерским ссылкам ниже.

[underverse.su].t67268.torrent
Трекер: Зарегистрирован   [ 14.06.2016 14:56 ]  

Статус: проверено (by makkol at 17.06.2016 23:31)
Поблагодарили: пока никто не поблагодарил...
Тип торрента: публичный - доступные источники с открытых трекеров: 
Размер: 1,46 GB (занимает 1/3 DVDR, для записи нужно 1 болванка DVDR/RW)
 
 

Яндекс.Метрика powered by Sphinx


В Н И М А Н И Е
Сайт не распространяет и не хранит электронные версии произведений, а лишь бесплатно и без коммерческой выгоды (не требуя взамен платы,
SMS и т.д.) предоставляет доступ к создаваемому пользователями каталогу ссылок на торрент-файлы, которые содержат только списки хеш-сумм.
Убедительная просьба с жалобами обращаться напрямую к пользователю, разместившему торрент файл.

Вверх