Loading...
Error

Молодой Мессия / The Young Messiah (Сайрус Наурасте) [2016 г., драма, HDRip] MVO

Статистика раздачи
Размер:  1,37 GB   |    Зарегистрирован:  5 месяцев 27 дней   |    Скачан:  3 раза

Полного источника не было: 5 месяцев 5 дней

Сидов:  0  |  0 KB/s  ]   Личеров:  0  |  0 KB/s  ]

* - сиды/пиры с внешних источников

   
 
Автор Сообщение

makkol Пол:Муж

13-Июн-2016 23:15

Молодой Мессия / The Young Messiah


Год выпуска: 2016
Жанр: драма
Производство: США [1492 Pictures, CJ Entertainment]
Режиссер: Сайрус Наурасте
В ролях: Адам Гривз-Нил, Сара Лаззаро, Винсент Уолш, Финн Айрлэнд, Кристиан МакКэй, Агни Скотт, Луис Эллингтон, Джейн Лапотэйр, Рори Кинэн
Сюжет фильма:
Фильм рассказывает историю Иисуса Христа в возрасте семи лет, как он и его семья отправляются в Египет, чтобы вернуться домой в Назарет.

  • Мировая премьера: 10 марта 2016


Качество видео: HDRip

Продолжительность: 01:50:41
Формат: AVI
Видео: XviD, 720x304 (2.35:1), 23.976 fps, 1313 kbps
Аудио: русский, любительский многоголосый закадровый, AC3 5.1, 48 kHz, 448 kbps

Код:

Формат                                   : AVI
Формат/Информация                        : Audio Video Interleave
Размер файла                             : 1,37 Гбайт
Продолжительность                        : 1 ч. 50 м.
Общий поток                              : 1771 Кбит/сек
Программа кодирования                    : VirtualDubMod 1.5.10.2 (build 2540/release)
Библиотека кодирования                   : VirtualDubMod build 2540/release

Видео
Идентификатор                            : 0
Формат                                   : MPEG-4 Visual
Профиль формата                          : Advanced Simple@L5
Параметр BVOP формата                    : 2
Параметр QPel формата                    : Нет
Параметр GMC формата                     : Без точки перехода
Параметр матрицы формата                 : Выборочная
Идентификатор кодека                     : XVID
Идентификатор кодека/Подсказка           : XviD
Продолжительность                        : 1 ч. 50 м.
Битрейт                                  : 1313 Кбит/сек
Ширина                                   : 720 пикселей
Высота                                   : 304 пикселя
Соотношение сторон                       : 2,35:1
Частота кадров                           : 23,976 (24000/1001) кадра/сек
Цветовое пространство                    : YUV
Субдискретизация насыщенности            : 4:2:0
Битовая глубина                          : 8 бит
Тип развёртки                            : Прогрессивная
Метод сжатия                             : С потерями
Бит/(Пиксели*Кадры)                      : 0.250
Размер потока                            : 1,02 Гбайт (74%)
Библиотека кодирования                   : XviD 1.2.1 (UTC 2008-12-04)

Аудио
Идентификатор                            : 1
Формат                                   : AC-3
Формат/Информация                        : Audio Coding 3
Расширение режима                        : CM (complete main)
Параметр Endianness формата              : Big
Идентификатор кодека                     : 2000
Продолжительность                        : 1 ч. 50 м.
Вид битрейта                             : Постоянный
Битрейт                                  : 448 Кбит/сек
Каналы                                   : 6 каналов
Расположение каналов                     : Front: L C R, Side: L R, LFE
Частота                                  : 48,0 КГц
Частота кадров                           : 31,250 кадров/сек (1536 spf)
Метод сжатия                             : С потерями
Размер потока                            : 355 Мбайт (25%)
Выравнивание                             : Разделение по промежуткам
Продолжительность промежутка             : 42  мс. (1,00 видеокадр)
Время предзагрузки промежутка            : 500  мс.
Присутствует реклама


picpicpicpicpic
Для увеличения картинки щелкните мышкой по превью

Этот торрент недоступен для скачивания без регистрации, однако доступен по публичной magnet-ссылке (источники с публичных трекеров). Перед использованием ссылки прочтите, пожалуйста Пользовательское соглашение, а также как можно дольше оставайтесь на раздаче! Для того, чтобы скачать сам торрент-файл (который видит больше источников), а также для того, чтобы поблагодарить релизера, вам необходимо зарегистрироваться. Если регистрироваться лень - вы можете также попробовать скачать релиз по нашим партнерским ссылкам ниже.

[underverse.su].t67176.torrent
Трекер: Зарегистрирован   [ 13.06.2016 23:15 ]  

Статус: проверено (by makkol at 17.06.2016 23:27)
Поблагодарили: 1 человек
Тип торрента: публичный - доступные источники с открытых трекеров: 
Размер: 1,37 GB (занимает 0,31 DVDR, для записи нужно 1 болванка DVDR/RW)
 
 
Похожие темы
Форум Тема Автор Торрент Отв. Посл. сооб.
T Зарубежное кино [DVDRip, Low-Res HDRip, и т.д.] Молодой Мессия / The Young Messiah (Сайрус Наурасте / Cyrus Nowrasteh) [2016 г., драма, HDRip] MVO + Original (Eng) 90ytr90
19 | 4

0 | 220

1

14.06.2016 06:01

Зарубежное кино [HDDVDRip / BDRip / WEB-DL / HDTV 1080/720р] Молодой Мессия / The Young Messiah (Сайрус Наурасте) [2016 г., драма, BDRip 1080p] MVO + Original makkol
0 | 0

0 | 249

0

13.06.2016 23:25

Зарубежное кино [HDDVDRip / BDRip / WEB-DL / HDTV 1080/720р] Молодой Мессия / The Young Messiah (Сайрус Наурасте) [2016 г., драма, BDRip 720p] MVO + Original makkol
0 | 0

0 | 240

1

13.06.2016 23:35


Яндекс.Метрика powered by Sphinx


В Н И М А Н И Е
Сайт не распространяет и не хранит электронные версии произведений, а лишь бесплатно и без коммерческой выгоды (не требуя взамен платы,
SMS и т.д.) предоставляет доступ к создаваемому пользователями каталогу ссылок на торрент-файлы, которые содержат только списки хеш-сумм.
Убедительная просьба с жалобами обращаться напрямую к пользователю, разместившему торрент файл.

Вверх