Loading...
Error

Острова. Булат Окуджава (Виталий Трояновский) [2004 г., документальный, биография, музыка, поэзия, TVRip]

Статистика раздачи
Размер:  485 MB   |    Зарегистрирован:  5 месяцев 19 дней   |    Скачан:  1 раз

Полного источника не было: 5 месяцев 16 дней

Сидов:  0  |  0 KB/s  ]   Личеров:  0  |  0 KB/s  ]

* - сиды/пиры с внешних источников

   
 
Автор Сообщение

ARI71 Пол:Муж

13-Июн-2016 17:13

Острова. Булат Окуджава


Год выпуска: 2004
Жанр: документальный, биография, музыка, поэзия
Страна: Россия Культура
Режиссер: Виталий Трояновский
В ролях: Булат Окуджава
Сюжет фильма:
«Острова» - телевизионный документальный цикл, который с января 2000 года ежемесячно, а с сентября того же года дважды в месяц выходит на телеканале «Культура». По первоначальному замыслу каждый новый выпуск должен был стать для зрителя открытием нового «острова», обладающего своей суверенной территорией в искусстве и, как правило, обойденного всеобщим вниманием или непонятого. Эти фильмы задают вопросы, но не ищут простых ответов, не просвещают и не пытаются объяснить необъяснимое. Их цель не исследование прошлого, а живое присутствие в нем. Отсюда - отказ от всякого авторского комментария. Говорят документы и книги, кадры из фильмов и сами герои - персонажи истории, которые в определенном смысле «рассказывают сами о себе».

Була́т Ша́лвович Окуджа́ва (при рождении назван родителями Дориа́ном, в честь Дориана Грея; 9 мая 1924, Москва, СССР — 12 июня 1997, Кламар, Франция) — советский и российский поэт, бард, прозаик и сценарист, композитор. Автор около двухсот авторских и эстрадных песен, написанных на собственные стихи, один из наиболее ярких представителей жанра авторской песни в 1950-е—1980-е годы.

Качество видео: TVRip

Продолжительность: 00:39:00
Формат: AVI
Видео: DivX 5, 708x564, ~1599 kbps
Аудио: русский, (оригинал), MP3 2.0, ~128.00 kbps

Код:

Общее
Полное имя : D:\Ostrova.Bulat.Okudgava.2004.TVRip..avi
Формат : AVI
Формат/Информация : Audio Video Interleave
Размер файла : 485 Мбайт
Продолжительность : 39 м.
Общий поток : 1736 Кбит/сек
Библиотека кодирования : VirtualDub build 27021/release

Видео
Идентификатор : 0
Формат : MPEG-4 Visual
Параметр BVOP формата : Нет
Параметр QPel формата : Нет
Параметр GMC формата : Без точки перехода
Параметр матрицы формата : Default (H.263)
Идентификатор кодека : DX50
Идентификатор кодека/Подсказка : DivX 5
Продолжительность : 39 м.
Битрейт : 1599 Кбит/сек
Ширина : 708 пикселей
Высота : 564 пикселя
Соотношение сторон : 5:4
Частота кадров : 25,000 кадров/сек
Цветовое пространство : YUV
Субдискретизация насыщенности : 4:2:0
Битовая глубина : 8 бит
Тип развёртки : Прогрессивная
Метод сжатия : С потерями
Бит/(Пиксели*Кадры) : 0.160
Размер потока : 446 Мбайт (92%)
Библиотека кодирования : DivX 5.2.1 (DrDivX 106) (UTC 2004-09-08)

Аудио
Идентификатор : 1
Формат : MPEG Audio
Версия формата : Version 1
Профиль формата : Layer 3
Режим : Joint stereo
Расширение режима : MS Stereo
Идентификатор кодека : 55
Идентификатор кодека/Подсказка : MP3
Продолжительность : 39 м.
Вид битрейта : Постоянный
Битрейт : 128 Кбит/сек
Каналы : 2 канала
Частота : 48,0 КГц
Метод сжатия : С потерями
Размер потока : 35,7 Мбайт (7%)
Выравнивание : Разделение по промежуткам
Продолжительность промежутка : 40 мс. (1,00 видеокадр)
Время предзагрузки промежутка : 500 мс.
picpicpicpicpic
Для увеличения картинки щелкните мышкой по превью

Этот торрент недоступен для скачивания без регистрации, однако доступен по публичной magnet-ссылке (источники с публичных трекеров). Перед использованием ссылки прочтите, пожалуйста Пользовательское соглашение, а также как можно дольше оставайтесь на раздаче! Для того, чтобы скачать сам торрент-файл (который видит больше источников), а также для того, чтобы поблагодарить релизера, вам необходимо зарегистрироваться. Если регистрироваться лень - вы можете также попробовать скачать релиз по нашим партнерским ссылкам ниже.

[underverse.su].t67162.torrent
Трекер: Зарегистрирован   [ 13.06.2016 17:13 ]  

Статус: проверено (by makkol at 13.06.2016 22:38)
Поблагодарили: пока никто не поблагодарил...
Тип торрента: публичный - доступные источники с открытых трекеров: 
Размер: 485 MB (занимает 0,11 DVDR, для записи нужно 1 болванка DVDR/RW)
 
 

Яндекс.Метрика powered by Sphinx


В Н И М А Н И Е
Сайт не распространяет и не хранит электронные версии произведений, а лишь бесплатно и без коммерческой выгоды (не требуя взамен платы,
SMS и т.д.) предоставляет доступ к создаваемому пользователями каталогу ссылок на торрент-файлы, которые содержат только списки хеш-сумм.
Убедительная просьба с жалобами обращаться напрямую к пользователю, разместившему торрент файл.

Вверх