Loading...
Error

Первопроходцы Дальнего Востока. Иван Москвитин. Путь к океану (Александр Свешников) [2013 г., документальный, познавательный, реконструкция, DVDRip]

Статистика раздачи
Размер:  700 MB   |    Зарегистрирован:  5 месяцев 27 дней   |    Скачан:  3 раза

Полного источника не было: 4 месяца 23 дня

Сидов:  0  |  0 KB/s  ]   Личеров:  0  |  0 KB/s  ]

* - сиды/пиры с внешних источников

   
 
Автор Сообщение

ARI71 Пол:Муж

13-Июн-2016 15:21

Первопроходцы Дальнего Востока. Иван Москвитин. Путь к океану


Год выпуска: 2013
Жанр: документальный, познавательный, реконструкция
Страна: Россия Студия имени В. Дворжецкого, ЗАО "ИД Комсомольская правда", РГО
Режиссер: Александр Свешников
Сюжет фильма:
В 1639 году томский казак Иван Москвитин с отрядом из 30 человек первым из русских вышел к берегам Тихого океана. Первопроходцы преодолели тысячи километров тайги и бурных сибирских рек, их встречали воинственно настроенные и хорошо организованные племена местных аборигенов (эвенов). Они голодали, мёрзли, но упорно двигались вперёд... Члены киноэкспедиции прошли один из самых интересных участков москвитинского пути – реку Улью и окунулись в удивительный мир дикой природы Дальнего Востока, которая мало изменилась за почти четыре столетия со времени похода Москвитина.

Ива́н Ю́рьевич Москви́тин (годы рождения и смерти неизвестны) — русский землепроходец, атаман пеших казаков. В 1639 году с отрядом казаков первым из европейцев достиг Охотского моря, открыл его побережье и Сахалинский залив.

Качество видео: DVDRip

Продолжительность: 00:51:28
Формат: AVI
Видео: XviD, 704x400 , ~1699 kbps
Аудио: русский, (оригинал), AC3 2.0, ~192.00 kbps

Код:

Общее
Полное имя : D:\Иван Московитин.Путь к океану.2013.XviD.DVDRip.avi
Формат : AVI
Формат/Информация : Audio Video Interleave
Размер файла : 700 Мбайт
Продолжительность : 51 м.
Общий поток : 1901 Кбит/сек
Программа кодирования : VirtualDubMod 1.5.10.2 (build 2540/release)
Библиотека кодирования : VirtualDubMod build 2540/release

Видео
Идентификатор : 0
Формат : MPEG-4 Visual
Профиль формата : Advanced Simple@L5
Параметр BVOP формата : 1
Параметр QPel формата : Нет
Параметр GMC формата : Без точки перехода
Параметр матрицы формата : Выборочная
Идентификатор кодека : XVID
Идентификатор кодека/Подсказка : XviD
Продолжительность : 51 м.
Битрейт : 1699 Кбит/сек
Ширина : 704 пикселя
Высота : 400 пикселей
Соотношение сторон : 16:9
Частота кадров : 25,000 кадров/сек
Цветовое пространство : YUV
Субдискретизация насыщенности : 4:2:0
Битовая глубина : 8 бит
Тип развёртки : Прогрессивная
Метод сжатия : С потерями
Бит/(Пиксели*Кадры) : 0.241
Размер потока : 626 Мбайт (89%)
Библиотека кодирования : XviD 1.2.1 (UTC 2008-12-04)

Аудио
Идентификатор : 1
Формат : AC-3
Формат/Информация : Audio Coding 3
Расширение режима : CM (complete main)
Параметр Endianness формата : Big
Идентификатор кодека : 2000
Продолжительность : 51 м.
Вид битрейта : Постоянный
Битрейт : 192 Кбит/сек
Каналы : 2 канала
Расположение каналов : Front: L R
Частота : 48,0 КГц
Частота кадров : 31,250 кадров/сек (1536 spf)
Метод сжатия : С потерями
Размер потока : 70,7 Мбайт (10%)
Выравнивание : Разделение по промежуткам
Продолжительность промежутка : 40 мс. (1,00 видеокадр)
Время предзагрузки промежутка : 500 мс.
picpicpicpicpic
Для увеличения картинки щелкните мышкой по превью

Этот торрент недоступен для скачивания без регистрации, однако доступен по публичной magnet-ссылке (источники с публичных трекеров). Перед использованием ссылки прочтите, пожалуйста Пользовательское соглашение, а также как можно дольше оставайтесь на раздаче! Для того, чтобы скачать сам торрент-файл (который видит больше источников), а также для того, чтобы поблагодарить релизера, вам необходимо зарегистрироваться. Если регистрироваться лень - вы можете также попробовать скачать релиз по нашим партнерским ссылкам ниже.

[underverse.su].t67150.torrent
Трекер: Зарегистрирован   [ 13.06.2016 15:21 ]  

Статус: проверено (by 90ytr90 at 13.06.2016 20:17)
Поблагодарили: 1 человек
Тип торрента: публичный - доступные источники с открытых трекеров: 
Размер: 700 MB (занимает 0,16 DVDR, для записи нужно 1 болванка DVDR/RW)
 
 
Похожие темы
Форум Тема Автор Торрент Отв. Посл. сооб.
Зарубежное кино [DVDRip, Low-Res HDRip, и т.д.] Первопроходец / Pioneer (Эрик Шёлдбьерг) [2013 г., триллер, HDRip] VO (datynet) 90ytr90
17 | 0

3 | 2428

120

23.03.2014 08:14

* Зарубежное кино [DVDRip, Low-Res HDRip, и т.д.] Первопроходец / Pioneer (Эрик Шёлдбьерг) [2013 г., триллер, HDRip] DVO (студия NLS) + Original (Nor) 90ytr90

0 | 145

16.01.2015 18:35

Зарубежное кино [DVDRip, Low-Res HDRip, и т.д.] Первопроходец / Pioneer (Эрик Шёлдбьерг) [2013 г., триллер, HDRip] DVO (студия NLS) + Original (Nor) 90ytr90
16 | 0

0 | 473

11

16.01.2015 18:38


Яндекс.Метрика powered by Sphinx


В Н И М А Н И Е
Сайт не распространяет и не хранит электронные версии произведений, а лишь бесплатно и без коммерческой выгоды (не требуя взамен платы,
SMS и т.д.) предоставляет доступ к создаваемому пользователями каталогу ссылок на торрент-файлы, которые содержат только списки хеш-сумм.
Убедительная просьба с жалобами обращаться напрямую к пользователю, разместившему торрент файл.

Вверх