Loading...
Error

Как прокормить медведя / Bear Feeding Frenzy [2008 г., документальный, фауна, HDTV 1080i] VO + Original (Eng)

Статистика раздачи
Размер:  3,56 GB   |    Зарегистрирован:  5 месяцев 23 дня   |    Скачан:  0 раз

Полного источника не было: 5 месяцев 21 день

Сидов:  0  |  0 KB/s  ]   Личеров:  0  |  0 KB/s  ]

* - сиды/пиры с внешних источников

   
 
Автор Сообщение

ARI71 Пол:Муж

13-Июн-2016 07:52

Как прокормить медведя / Bear Feeding Frenzy


Год выпуска: 2008
Жанр: документальный, фауна
Страна: США Gurney Productions, Discovery Channel
Перевод: русский, одноголосый (профессиональный)
Режиссер: Скотт Гарни
Сюжет фильма:
Ведущий Крис Дуглас отправляется вглубь Аляски для наблюдения за медведем гризли и изучения повадок этого хищника и проведения научных экспериментов.


Качество видео: HDTV 1080i

Продолжительность: 00:43:43
Формат: MPEG-TS
Видео: AVC, 1920x1080 (16:9), 25 fps, (Main@L4) ~10,3 Мбит/сек, 0.199 bit/pixel
Аудио #1: Русский, 48 kHz, АС3, 6 ch, ~384.00 kbps avg
Аудио #2: Английский, 48 kHz, АС3, 6 ch, ~384.00 kbps avg

Код:

Общее
Идентификатор : 14 (0xE)
Полное имя : D:\Как прокормить медведя.ts
Формат : MPEG-TS
Размер файла : 3,56 Гбайт
Продолжительность : 43 м.
Режим общего битрейта : Переменный
Общий поток : 11,6 Мбит/сек

Видео
Идентификатор : 324 (0x144)
Идентификатор меню : 14104 (0x3718)
Формат : AVC
Формат/Информация : Advanced Video Codec
Профиль формата : Main@L4
Параметр CABAC формата : Да
Параметр ReFrames формата : 3 кадра
Идентификатор кодека : 27
Продолжительность : 43 м.
Битрейт : 10,3 Мбит/сек
Ширина : 1920 пикселей
Высота : 1080 пикселей
Соотношение сторон : 16:9
Частота кадров : 25,000 кадров/сек
Стандарт вещания : Component
Цветовое пространство : YUV
Субдискретизация насыщенности : 4:2:0
Битовая глубина : 8 бит
Тип развёртки : Чересстрочная
Метод сохранения типа развёртки : Раздельные поля
Порядок развёртки : Верхнее поле первое
Бит/(Пиксели*Кадры) : 0.199
Размер потока : 3,14 Гбайт (88%)
Цветовой диапазон : Limited
Основные цвета : BT.709
Характеристики трансфера : BT.709
Коэффициенты матрицы : BT.709

Аудио #1
Идентификатор : 404 (0x194)
Идентификатор меню : 14104 (0x3718)
Формат : AC-3
Формат/Информация : Audio Coding 3
Расширение режима : CM (complete main)
Параметр Endianness формата : Big
Идентификатор кодека : 6
Продолжительность : 43 м.
Вид битрейта : Постоянный
Битрейт : 384 Кбит/сек
Каналы : 6 каналов
Расположение каналов : Front: L C R, Side: L R, LFE
Частота : 48,0 КГц
Частота кадров : 31,250 кадров/сек (1536 spf)
Метод сжатия : С потерями
Задержка видео : 144 мс.
Размер потока : 120 Мбайт (3%)
Язык : Russian
Язык, дополнительно : Clean effects

Аудио #2
Идентификатор : 414 (0x19E)
Идентификатор меню : 14104 (0x3718)
Формат : AC-3
Формат/Информация : Audio Coding 3
Расширение режима : CM (complete main)
Параметр Endianness формата : Big
Идентификатор кодека : 6
Продолжительность : 43 м.
Вид битрейта : Постоянный
Битрейт : 384 Кбит/сек
Каналы : 6 каналов
Расположение каналов : Front: L C R, Side: L R, LFE
Частота : 48,0 КГц
Частота кадров : 31,250 кадров/сек (1536 spf)
Метод сжатия : С потерями
Задержка видео : 70 мс.
Размер потока : 120 Мбайт (3%)
Язык : English
Язык, дополнительно : Clean effects
picpicpicpicpic
Для увеличения картинки щелкните мышкой по превью

Этот торрент недоступен для скачивания без регистрации, однако доступен по публичной magnet-ссылке (источники с публичных трекеров). Перед использованием ссылки прочтите, пожалуйста Пользовательское соглашение, а также как можно дольше оставайтесь на раздаче! Для того, чтобы скачать сам торрент-файл (который видит больше источников), а также для того, чтобы поблагодарить релизера, вам необходимо зарегистрироваться. Если регистрироваться лень - вы можете также попробовать скачать релиз по нашим партнерским ссылкам ниже.

[underverse.su].t67134.torrent
Трекер: Зарегистрирован   [ 13.06.2016 07:52 ]  

Статус: проверено (by Паукан at 13.06.2016 09:57)
Поблагодарили: пока никто не поблагодарил...
Тип торрента: публичный - доступные источники с открытых трекеров: 
Размер: 3,56 GB (занимает 0,81 DVDR, для записи нужно 1 болванка DVDR/RW)
 
 
Похожие темы
Форум Тема Автор Торрент Отв. Посл. сооб.
Научно-популярные фильмы Как прокормить льва / Lion Feeding Frenzy [2008 г., документальный, фауна, HDTV 1080i] VO ARI71
0 | 0

0 | 441

0

13.06.2016 07:05


Яндекс.Метрика powered by Sphinx


В Н И М А Н И Е
Сайт не распространяет и не хранит электронные версии произведений, а лишь бесплатно и без коммерческой выгоды (не требуя взамен платы,
SMS и т.д.) предоставляет доступ к создаваемому пользователями каталогу ссылок на торрент-файлы, которые содержат только списки хеш-сумм.
Убедительная просьба с жалобами обращаться напрямую к пользователю, разместившему торрент файл.

Вверх