Loading...
Error

Как прокормить льва / Lion Feeding Frenzy [2008 г., документальный, фауна, HDTV 1080i] VO

Статистика раздачи
Размер:  3,21 GB   |    Зарегистрирован:  5 месяцев 27 дней   |    Скачан:  0 раз

Полного источника не было: 5 месяцев 26 дней

Сидов:  0  |  0 KB/s  ]   Личеров:  0  |  0 KB/s  ]

* - сиды/пиры с внешних источников

   
 
Автор Сообщение

ARI71 Пол:Муж

13-Июн-2016 07:05

Как прокормить льва / Lion Feeding Frenzy


Год выпуска: 2008
Жанр: документальный, фауна
Страна: США Gurney Productions, Discovery Channel
Режиссер: Скотт Гарни
Сюжет фильма:
Ведущий Крис Дуглас отправляется на африканские равнины для наблюдения за величественным львом и изучения повадок этого хищника.
Качество видео: HDTV 1080i

Продолжительность: 00:43:59
Формат: MPEG-TS
Видео: AVC, 1920x1080 (16:9), 25 fps, (Main@L4) ~9537 Кбит/сек, 0.184 bit/pixel
Аудио: русский, одноголосый (профессиональный), AC3 6.0, ~384.00 kbps

Код:

Общее
Идентификатор : 1 (0x1)
Полное имя : D:\Как прокормить льва.ts
Формат : MPEG-TS
Размер файла : 3,21 Гбайт
Продолжительность : 43 м.
Режим общего битрейта : Переменный
Общий поток : 10,4 Мбит/сек

Видео
Идентификатор : 324 (0x144)
Идентификатор меню : 1 (0x1)
Формат : AVC
Формат/Информация : Advanced Video Codec
Профиль формата : Main@L4
Параметр CABAC формата : Да
Параметр ReFrames формата : 3 кадра
Идентификатор кодека : 27
Продолжительность : 43 м.
Битрейт : 9537 Кбит/сек
Ширина : 1920 пикселей
Высота : 1080 пикселей
Соотношение сторон : 16:9
Частота кадров : 25,000 кадров/сек
Стандарт вещания : Component
Цветовое пространство : YUV
Субдискретизация насыщенности : 4:2:0
Битовая глубина : 8 бит
Тип развёртки : Чересстрочная
Метод сохранения типа развёртки : Раздельные поля
Порядок развёртки : Верхнее поле первое
Бит/(Пиксели*Кадры) : 0.184
Размер потока : 2,93 Гбайт (91%)
Цветовой диапазон : Limited
Основные цвета : BT.709
Характеристики трансфера : BT.709
Коэффициенты матрицы : BT.709

Аудио
Идентификатор : 404 (0x194)
Идентификатор меню : 1 (0x1)
Формат : AC-3
Формат/Информация : Audio Coding 3
Расширение режима : CM (complete main)
Параметр Endianness формата : Big
Идентификатор кодека : 6
Продолжительность : 43 м.
Вид битрейта : Постоянный
Битрейт : 384 Кбит/сек
Каналы : 6 каналов
Расположение каналов : Front: L C R, Side: L R, LFE
Частота : 48,0 КГц
Частота кадров : 31,250 кадров/сек (1536 spf)
Метод сжатия : С потерями
Размер потока : 121 Мбайт (4%)
Язык : Russian
picpicpicpicpic
Для увеличения картинки щелкните мышкой по превью

Этот торрент недоступен для скачивания без регистрации, однако доступен по публичной magnet-ссылке (источники с публичных трекеров). Перед использованием ссылки прочтите, пожалуйста Пользовательское соглашение, а также как можно дольше оставайтесь на раздаче! Для того, чтобы скачать сам торрент-файл (который видит больше источников), а также для того, чтобы поблагодарить релизера, вам необходимо зарегистрироваться. Если регистрироваться лень - вы можете также попробовать скачать релиз по нашим партнерским ссылкам ниже.

[underverse.su].t67132.torrent
Трекер: Зарегистрирован   [ 13.06.2016 07:24 ]  

Статус: проверено (by Паукан at 13.06.2016 09:57)
Поблагодарили: пока никто не поблагодарил...
Тип торрента: публичный - доступные источники с открытых трекеров: 
Размер: 3,21 GB (занимает 0,73 DVDR, для записи нужно 1 болванка DVDR/RW)
 
 
Похожие темы
Форум Тема Автор Торрент Отв. Посл. сооб.
Научно-популярные фильмы Как прокормить медведя / Bear Feeding Frenzy [2008 г., документальный, фауна, HDTV 1080i] VO + Original (Eng) ARI71
0 | 0

0 | 447

0

13.06.2016 07:52


Яндекс.Метрика powered by Sphinx


В Н И М А Н И Е
Сайт не распространяет и не хранит электронные версии произведений, а лишь бесплатно и без коммерческой выгоды (не требуя взамен платы,
SMS и т.д.) предоставляет доступ к создаваемому пользователями каталогу ссылок на торрент-файлы, которые содержат только списки хеш-сумм.
Убедительная просьба с жалобами обращаться напрямую к пользователю, разместившему торрент файл.

Вверх