Loading...
Error

Реальные парни / A Stand Up Guy (Майк Янг) [2016 г., комедия, DVDRip] MVO

Статистика раздачи
Размер:  1,37 GB   |    Зарегистрирован:  5 месяцев 28 дней   |    Скачан:  16 раз

Полного источника не было: 16 часов

Сидов:  0  |  0 KB/s  ]   Личеров:  0  |  0 KB/s  ]

* - сиды/пиры с внешних источников

   
 
Автор Сообщение

makkol Пол:Муж

12-Июн-2016 22:55

Реальные парни / A Stand Up Guy


Год выпуска: 2016
Жанр: комедия
Производство: США [2B Films]
Режиссер: Майк Янг
В ролях: Дэнни А. Абекейзер, Энни Хейз, Ник Сорберо, Люк Робертсон, Джей Р. Фергюсон, Моран Атиас, Итэн Сапли, Рэй Янничелли, Бен Лайонс
Сюжет фильма:
Сэмми Лагуччи – мелкий гангстер, который вынужден скрываться от своих подельников, используя программу по защите свидетелей. Перебравшись в Нью-Йорк, он обзаводится новыми знакомыми и начинает обживаться. Как-то на спор он выходит на сцену и без труда отыгрывает стенд-ап номер. В зале отлично принимают его выступление, да и сам он чувствует, что имеет некоторый талант в этом «направлении». Так Сэмми начинает работать стенд-ап комиком, и быстро становится местной знаменитостью. Естественно, такая слава привлекает к нему внимание бывших коллег по криминалу.

  • Мировая премьера: 9 февраля 2016


Качество видео: DVDRip

Продолжительность: 01:21:06
Формат: AVI
Видео: XviD, 720x400 (16:9), 23.976 fps, 1956 kbps
Аудио: русский, любительский многоголосый закадровый (Parovoz Production), AC3 5.1, 48 kHz, 448 kbps

Код:

Format : AVI
Format/Info : Audio Video Interleave
File size : 1.37 GiB
Duration : 1h 21mn
Overall bit rate : 2 413 Kbps
Writing application : VirtualDubMod 1.5.10.2 (build 2540/release)
Writing library : VirtualDubMod build 2540/release

Video
ID : 0
Format : MPEG-4 Visual
Format profile : Advanced Simple@L5
Format settings, BVOP : 2
Format settings, QPel : No
Format settings, GMC : No warppoints
Format settings, Matrix : Custom
Codec ID : XVID
Codec ID/Hint : XviD
Duration : 1h 21mn
Bit rate : 1 956 Kbps
Width : 720 pixels
Height : 400 pixels
Display aspect ratio : 16:9
Frame rate : 23.976 fps
Color space : YUV
Chroma subsampling : 4:2:0
Bit depth : 8 bits
Scan type : Progressive
Compression mode : Lossy
Bits/(Pixel*Frame) : 0.283
Stream size : 1.11 GiB (81%)
Writing library : XviD 1.2.1 (UTC 2008-12-04)

Audio
ID : 1
Format : AC-3
Format/Info : Audio Coding 3
Mode extension : CM (complete main)
Format settings, Endianness : Big
Codec ID : 2000
Duration : 1h 21mn
Bit rate mode : Constant
Bit rate : 448 Kbps
Channel(s) : 6 channels
Channel positions : Front: L C R, Side: L R, LFE
Sampling rate : 48.0 KHz
Bit depth : 16 bits
Compression mode : Lossy
Stream size : 260 MiB (19%)
Alignment : Split accross interleaves
Interleave, duration : 42 ms (1.00 video frame)
Interleave, preload duration : 500 ms
Присутствует реклама


picpicpicpicpic
Для увеличения картинки щелкните мышкой по превью

Этот торрент недоступен для скачивания без регистрации, однако доступен по публичной magnet-ссылке (источники с публичных трекеров). Перед использованием ссылки прочтите, пожалуйста Пользовательское соглашение, а также как можно дольше оставайтесь на раздаче! Для того, чтобы скачать сам торрент-файл (который видит больше источников), а также для того, чтобы поблагодарить релизера, вам необходимо зарегистрироваться. Если регистрироваться лень - вы можете также попробовать скачать релиз по нашим партнерским ссылкам ниже.

[underverse.su].t67117.torrent
Трекер: Зарегистрирован   [ 12.06.2016 22:55 ]  

Статус: проверено (by makkol at 17.06.2016 23:23)
Поблагодарили: пока никто не поблагодарил...
Тип торрента: публичный - доступные источники с открытых трекеров: 
Размер: 1,37 GB (занимает 0,31 DVDR, для записи нужно 1 болванка DVDR/RW)
 
 
Похожие темы
Форум Тема Автор Торрент Отв. Посл. сооб.
Зарубежное кино [DVDRip, Low-Res HDRip, и т.д.] Реальные парни / Stand Up Guys (Фишер Стивенс) [2012 г., драма, комедия, криминал, DVDRip] Dub RG NewCinema
43 | 0

0 | 5879

190

05.03.2013 16:03

Зарубежное кино [DVDRip, Low-Res HDRip, и т.д.] Реальные парни / Stand Up Guys (Фишер Стивенс) [2012 г., драма, комедия, криминал, BDRip] Dub 90ytr90
0 | 0

1 | 2621

30

09.04.2013 14:42

Зарубежное кино [DVDRip, Low-Res HDRip, и т.д.] Реальные парни / Stand Up Guys (Фишер Стивенс) [2012 г., Драма, Комедия, Криминал, BDRip-AVC] Dub + Original Чертёнок
1 | 0

1 | 2810

57

14.04.2013 09:09

Зарубежные сериалы Реальные Пацаны / Блю Маунтин Стэйт / Blue Mountain State / Сезон 1 / Серии 1-13 (13) (Брайн Роббинс) [2010 г., комедия, HDRip] Jimmy
0 | 0

2 | 949

0

18.09.2011 17:59

xUSSR сериалы Реальные пацаны ( Серии 1-14, 16-33 из 33) (Жанна Кадникова) [2010 г., Комедия, WEB-DLRip] Crihsler
0 | 1

30 | 5458

8

02.01.2011 20:58

xUSSR сериалы Реальные пацаны / Сезон 5 / Серии 1-16 (?) (Жанна Кадникова) [2013 г., Комедия, SATRip] TERRAN
7 | 10

12 | 3539

31

28.05.2014 16:54

T xUSSR сериалы Реальные пацаны. Возвращение [06х01-20] (Жанна Кадникова) [2014 г., комедия, WEB-DLRip] evropium
7 | 0

1 | 1417

16

05.09.2014 15:20

T xUSSR сериалы Реальные пацаны (сезон 7 серий 1-8 из 20) (Жанна Кадникова) [2015 г., Комедийный телесериал, WEB-DLRip] ultarasbarcelona
0 | 0

1 | 905

10

24.04.2015 14:21


Яндекс.Метрика powered by Sphinx


В Н И М А Н И Е
Сайт не распространяет и не хранит электронные версии произведений, а лишь бесплатно и без коммерческой выгоды (не требуя взамен платы,
SMS и т.д.) предоставляет доступ к создаваемому пользователями каталогу ссылок на торрент-файлы, которые содержат только списки хеш-сумм.
Убедительная просьба с жалобами обращаться напрямую к пользователю, разместившему торрент файл.

Вверх