Loading...
Error

Удивительные копатели / Incredible Diggers [2015 г., документальный, флора, фауна, HDTVRip] VO

Статистика раздачи
Размер:  500 MB   |    Зарегистрирован:  5 месяцев 28 дней   |    Скачан:  1 раз

Полного источника не было: 4 месяца 27 дней

Сидов:  0  |  0 KB/s  ]   Личеров:  0  |  0 KB/s  ]

* - сиды/пиры с внешних источников

   
 
Автор Сообщение

ARI71 Пол:Муж

10-Июн-2016 12:27

Удивительные копатели / Incredible Diggers


Год выпуска: 2015
Жанр: документальный, флора, фауна
Страна: США Earth Touch
Сюжет фильма:
Эти животные - величайшие мастера земляных работ на планете. Они роют, чтобы добыть пропитание, обойти конкурентов и скрыться от врагов. Добро пожаловать в мир самых необычных копателей, чья невероятная адаптация и хитрое оружие помогают им выжить.
Качество видео: HDTVRip

Продолжительность: 00:43:59
Формат: AVI
Видео: DivX 5, 720x400, ~1386 kbps
Аудио: русский, одноголосый закадровый (профессиональный), AC3 2.0, ~192.00 kbps

Доп. информация: Перевод: студия "Велес" Олег Федоров

Код:

Общее
Полное имя : D:\Udivitel'nye.kopateli.2015.HDTVRip.[Один 777].avi
Формат : AVI
Формат/Информация : Audio Video Interleave
Размер файла : 500 Мбайт
Продолжительность : 43 м.
Общий поток : 1588 Кбит/сек
Программа кодирования : VirtualDubMod 1.5.10.3 | www.virtualdub-fr.org || (build 2550/release)
Библиотека кодирования : VirtualDubMod build 2550/release

Видео
Идентификатор : 0
Формат : MPEG-4 Visual
Профиль формата : Advanced Simple@L5
Параметр BVOP формата : 1
Параметр QPel формата : Нет
Параметр GMC формата : Без точки перехода
Параметр матрицы формата : Default (MPEG)
Идентификатор кодека : DX50
Идентификатор кодека/Подсказка : DivX 5
Продолжительность : 43 м.
Битрейт : 1386 Кбит/сек
Ширина : 720 пикселей
Высота : 400 пикселей
Соотношение сторон : 16:9
Частота кадров : 25,000 кадров/сек
Цветовое пространство : YUV
Субдискретизация насыщенности : 4:2:0
Битовая глубина : 8 бит
Тип развёртки : Прогрессивная
Метод сжатия : С потерями
Бит/(Пиксели*Кадры) : 0.193
Размер потока : 436 Мбайт (87%)
Библиотека кодирования : XviD 73

Аудио
Идентификатор : 1
Формат : AC-3
Формат/Информация : Audio Coding 3
Расширение режима : CM (complete main)
Параметр Endianness формата : Big
Идентификатор кодека : 2000
Продолжительность : 43 м.
Вид битрейта : Постоянный
Битрейт : 192 Кбит/сек
Каналы : 2 канала
Расположение каналов : Front: L R
Частота : 48,0 КГц
Частота кадров : 31,250 кадров/сек (1536 spf)
Метод сжатия : С потерями
Размер потока : 60,4 Мбайт (12%)
Выравнивание : Разделение по промежуткам
Продолжительность промежутка : 40 мс. (1,00 видеокадр)
Время предзагрузки промежутка : 500 мс.
picpicpicpicpic
Для увеличения картинки щелкните мышкой по превью

Этот торрент недоступен для скачивания без регистрации, однако доступен по публичной magnet-ссылке (источники с публичных трекеров). Перед использованием ссылки прочтите, пожалуйста Пользовательское соглашение, а также как можно дольше оставайтесь на раздаче! Для того, чтобы скачать сам торрент-файл (который видит больше источников), а также для того, чтобы поблагодарить релизера, вам необходимо зарегистрироваться. Если регистрироваться лень - вы можете также попробовать скачать релиз по нашим партнерским ссылкам ниже.

[underverse.su].t66981.torrent
Трекер: Зарегистрирован   [ 10.06.2016 12:27 ]  

Статус: проверено (by makkol at 11.06.2016 22:05)
Поблагодарили: пока никто не поблагодарил...
Тип торрента: публичный - доступные источники с открытых трекеров: 
Размер: 500 MB (занимает 0,11 DVDR, для записи нужно 1 болванка DVDR/RW)
 
 
Похожие темы
Форум Тема Автор Торрент Отв. Посл. сооб.
Зарубежное кино [DVDRip, Low-Res HDRip, и т.д.] Удивительная жизнь учителей / Реальная жизнь учителей / La Vraie vie des profs (Эммануэль Клотц, Альберт Перейра-Лазаро) [2013 г., комедия, HDRip] MVO makkol
23 | 2

0 | 432

5

31.08.2016 14:04

Кино СССР Удивительные приключения Дениса Кораблева (Игорь Пушкарев, Игорь Добролюбов, Виталий Дудин) [1979 г., детский, семейный, DVDRip] 90ytr90
1 | 0

0 | 1629

7

21.10.2013 18:24

National Geographic Удивительные пауки / Incredible spiders [2015 г., документальный, научно-познавательный, HDTVRip 720p] Dub + Original (Eng) ARI71
1 | 0

0 | 995

5

23.05.2016 21:24

National Geographic Удивительные насекомые / Incredible Insects [2015 г., документальный, научно-познавательный, HDTVRip] VO ARI71
30 | 0

0 | 539

4

08.06.2016 09:11

National Geographic Удивительные пауки / Incredible spiders (Джессика Коннелл) [2015 г., документальный, природа, фауна, HDTV 1080i] Dub ARI71
10 | 0

0 | 394

3

13.07.2016 16:20

National Geographic Удивительные пауки / Incredible spiders (Джессика Коннелл) [2015 г., документальный, природа, фауна, HDTVRip-AVC] Dub ARI71
8 | 0

0 | 421

1

14.07.2016 18:14

BBC Удивительный мир крови / The Wonderful World of Blood with Michael Mosley [2015 г., документальный, научно-познавательный, HDTVRip 720p] Dub ARI71
2 | 0

0 | 706

10

26.04.2016 10:22

BBC Удивительный мир крови / The Wonderful World of Blood with Michael Mosley [2015 г., документальный, научно-познавательный, HDTVRip] Dub ARI71
0 | 0

0 | 821

2

09.05.2016 15:06

Другие фильмы Удивительные яхты / Extreme Yachts (1 сезон: 1-6 серий из 6) / (Дэнис Зерулл, Энди Робинсон) [2012 г., документальный, инженерия, дизайн, HDTVRip 720p] DVO ARI71
2 | 0

0 | 388

3

23.09.2016 14:27

Зарубежное кино [HDDVDRip / BDRip / WEB-DL / HDTV 1080/720р] Удивительная жизнь учителей / Реальная жизнь учителей / La Vraie vie des profs (Эммануэль Клотц, Альберт Перейра-Лазаро) [2013 г., комедия, BDRip 720p] MVO + Original makkol
15 | 3

0 | 322

0

31.08.2016 14:44


Яндекс.Метрика powered by Sphinx


В Н И М А Н И Е
Сайт не распространяет и не хранит электронные версии произведений, а лишь бесплатно и без коммерческой выгоды (не требуя взамен платы,
SMS и т.д.) предоставляет доступ к создаваемому пользователями каталогу ссылок на торрент-файлы, которые содержат только списки хеш-сумм.
Убедительная просьба с жалобами обращаться напрямую к пользователю, разместившему торрент файл.

Вверх