Loading...
Error

Слишком молодые, чтобы умереть / Too Young To Die (1-10 серий из 10) [2012 - 2015 г., документальный, биография, DVB] DVO

Статистика раздачи
Размер:  9,98 GB   |    Зарегистрирован:  5 месяцев 28 дней   |    Скачан:  0 раз

Полного источника не было: 5 месяцев 27 дней

Сидов:  0  |  0 KB/s  ]   Личеров:  0  |  0 KB/s  ]

* - сиды/пиры с внешних источников

   
 
Автор Сообщение

ARI71 Пол:Муж

09-Июн-2016 18:54

Слишком молодые, чтобы умереть / Too Young To Die (1-10 серий из 10)


Год выпуска: 2012 - 2015
Жанр: документальный, биография
Страна: Германия Телеканал: "Время: далекое и близкое", "24 ДОК".
Режиссер: Джобст Книгге, Нильс Негенданк, Даг Фрейер, Маттиас Шмидт, Аннете Баумайстер
Сюжет фильма:
Их обожают, ими восхищаются. Они являются идолами для целых поколений. Каждый их шаг является достоянием средств массовой информации. Но некоторым из них пришлось заплатить дорогую цену за свою славу: на вершине карьеры их жизнь оборвалась, принеся им мифический статус. Цикл "Слишком молодые, чтобы умереть" расскажет истории о безвременной и трагичной гибели молодых звезд.
Качество видео: DVB

Продолжительность: 10 х ~00:50:00
Формат: MKV
Видео: V_MPEG2, 720x576, ~3089 kbps
Аудио: русский, двухголосый закадровый (профессиональный), MP2 2.0, ~192.00 kbps
(тех. данные всех серий идентичны)

Доп. информация: Перевод осуществлён по заказу ЗАО "Первый канал. Всемирная сеть"
01. Джон Белуши (2012)
02. Курт Кобейн (2012)
03. Хит Леджер (2012)
04. Шэрон Тейт (2012)
05. Ривер Феникс (2013)
06. Натали Вуд (2013)
07. Владимир Высоцкий (2013)
08. Джуди Гарланд (2015)
09. Филип Сеймур Хоффман (2015)
10. Брюс Ли (2015)

Код:

Общее
Уникальный идентификатор : 192861510397641240810781550024600516977 (0x9117C69ACB0EFF62900C104D07EAF971)
Полное имя : D:\Too_Young_To_Die\01. John_Belushi_Ein_Leben_uber_dem_Limit(2012)DVB.mkv
Формат : Matroska
Версия формата : Version 2
Размер файла : 1,21 Гбайт
Продолжительность : 51 м.
Режим общего битрейта : Переменный
Общий поток : 3348 Кбит/сек
Название фильма : Too Young To Die
Дата выпуска : 2012-07-14
Дата кодирования : UTC 2016-02-06 12:39:09
Программа кодирования : mkvmerge v8.8.0 ('Wind at my back') 64bit
Библиотека кодирования : libebml v1.3.3 + libmatroska v1.4.4
Обложка : Yes
Attachments : cover.png / cover_small.png
DIRECTOR : Jobst Knigge
GENRE : Documentary
IMDB : tt2326154
KEYWORDS : *другой трекер*
LAW_RATING : 12+
SUMMARY : ep. 01 John Belushi: Ein Leben über dem Limit

Видео
Идентификатор : 1
Формат : MPEG Video
Версия формата : Version 2
Профиль формата : Main@Main
Параметр BVOP формата : Да
Параметр матрицы формата : Выборочная
Параметр GOP формата : M=3, N=12
Структура изображения : Frame
Идентификатор кодека : V_MPEG2
Идентификатор кодека/Информация : MPEG 1 or 2 Video
Продолжительность : 51 м.
Вид битрейта : Переменный
Битрейт : 3089 Кбит/сек
Ширина : 720 пикселей
Высота : 576 пикселей
Соотношение сторон : 4:3
Режим частоты кадров : Постоянный
Частота кадров : 25,000 кадров/сек
Стандарт вещания : PAL
Цветовое пространство : YUV
Субдискретизация насыщенности : 4:2:0
Битовая глубина : 8 бит
Тип развёртки : Чересстрочная
Порядок развёртки : Верхнее поле первое
Метод сжатия : С потерями
Бит/(Пиксели*Кадры) : 0.298
Временной код первого кадра : 00:00:00:00
Оригинал временного кода : Group of pictures header
GOP, открыто/закрыто : Открыто
GOP, открыто/закрыто на первом кадре : Закрыто
Размер потока : 1,11 Гбайт (92%)
Default : Да
Forced : Нет

Аудио
Идентификатор : 2
Формат : MPEG Audio
Версия формата : Version 1
Профиль формата : Layer 2
Идентификатор кодека : A_MPEG/L2
Идентификатор кодека/Подсказка : MP2
Продолжительность : 51 м.
Вид битрейта : Постоянный
Битрейт : 192 Кбит/сек
Каналы : 2 канала
Частота : 48,0 КГц
Метод сжатия : С потерями
Размер потока : 70,9 Мбайт (6%)
Язык : Russian
Default : Да
Forced : Нет
picpicpicpicpic
Для увеличения картинки щелкните мышкой по превью

Этот торрент недоступен для скачивания без регистрации, однако доступен по публичной magnet-ссылке (источники с публичных трекеров). Перед использованием ссылки прочтите, пожалуйста Пользовательское соглашение, а также как можно дольше оставайтесь на раздаче! Для того, чтобы скачать сам торрент-файл (который видит больше источников), а также для того, чтобы поблагодарить релизера, вам необходимо зарегистрироваться. Если регистрироваться лень - вы можете также попробовать скачать релиз по нашим партнерским ссылкам ниже.

[underverse.su].t66960.torrent
Трекер: Зарегистрирован   [ 09.06.2016 18:54 ]  

Статус: проверено (by makkol at 09.06.2016 22:04)
Поблагодарили: пока никто не поблагодарил...
Тип торрента: публичный - доступные источники с открытых трекеров: 
Размер: 9,98 GB (занимает 2,28 DVDR, для записи нужно 3 болванки DVDR/RW)
 
 
Похожие темы
Форум Тема Автор Торрент Отв. Посл. сооб.
Личности Слишком молод, чтобы умереть / Too Young To Die [2012 г., документальный, WEB-DLRip] DVO ARI71
0 | 0

1 | 321

1

09.08.2015 12:00


Яндекс.Метрика powered by Sphinx


В Н И М А Н И Е
Сайт не распространяет и не хранит электронные версии произведений, а лишь бесплатно и без коммерческой выгоды (не требуя взамен платы,
SMS и т.д.) предоставляет доступ к создаваемому пользователями каталогу ссылок на торрент-файлы, которые содержат только списки хеш-сумм.
Убедительная просьба с жалобами обращаться напрямую к пользователю, разместившему торрент файл.

Вверх