Loading...
Error

Неудержимые / The Expendables (Сильвестр Сталлоне / Sylvester Stallone) [2010 г., боевик, триллер, приключения, BDRip] Dub + Eng HQ Underverse

Статистика раздачи
Размер:  2,18 GB   |    Зарегистрирован:  6 месяцев   |    Скачан:  2 раза
Сидов:  1  |  0 KB/s  ]   Личеров:  0  |  0 KB/s  ]

* - сиды/пиры с внешних источников

   
 
Автор Сообщение

HQ Underverse 

09-Июн-2016 16:08

Неудержимые / The Expendables


Год выпуска: 2010
Жанр: боевик, триллер, приключения
Страна: США
Режиссер: Сильвестр Сталлоне / Sylvester Stallone
В ролях: Сильвестр Сталлоне, Джейсон Стэйтем, Джет Ли, Жизель Итье, Рэнди Кутюр, Дольф Лундгрен, Терри Крюс, Микки Рурк, Эрик Робертс, Дэвид Зайас
Сюжет фильма:
Отряд профессиональных наёмников и отчаянных парней во главе с Барни Россом получает непростое задание — любой ценой найти и уничтожить кровавого тирана-диктатора, нагнетающего страх на мирное население и сеющего хаос в южноамериканской стране.

Отправляясь на выполнение нелёгкой миссии, закалённые огнём и водой, прошедшие не одну войну, люди Росса попадают в самое пекло. Отныне им придётся выживать: сплотиться и достигнуть цели, либо отчаяться и погибнуть. И всё же эти храбрые, поистине невозмутимые ребята готовы реализовать даже не реализуемое. Но не всё так просто, как кажется на первый взгляд…

  • Мировая премьера: 3 августа 2010
  • Российская премьера: 11 августа 2010

/
Качество видео: BDRip

Продолжительность: 01:43:27
Формат: avi
Видео: XviD, 720x304, 2102 kbps
Аудио #1: русский, дублированный [лицензия, Rus BD], AC3 5.1, 448 kbps
Аудио #2: английский, оригинал, AC3 5.1, 448 kbps
Субтитры #1: внешние, SRT, русский
Субтитры #2: внешние, SRT, английский

Семпл: http://multi-up.com/1105086

Релиз группы:

Код:

General
Complete name                    : D:\Video\Movies\Releases\Expendables.2010.BDRip.XviD.AC3.Rus.D.Eng.O.HQ.Underverse.avi
Format                           : AVI
Format/Info                      : Audio Video Interleave
Format profile                   : OpenDML
File size                        : 2.18 GiB
Duration                         : 1h 43mn
Overall bit rate                 : 3 016 Kbps
Writing application              : VirtualDubMod 1.5.10.3 | www.virtualdub-fr.org || (build 2550/release)
Writing library                  : VirtualDubMod build 2550/release

Video
ID                               : 0
Format                           : MPEG-4 Visual
Format profile                   : Streaming Video@L1
Format settings, BVOP            : Yes
Format settings, QPel            : No
Format settings, GMC             : No warppoints
Format settings, Matrix          : Custom
Codec ID                         : XVID
Codec ID/Hint                    : XviD
Duration                         : 1h 43mn
Bit rate                         : 2 103 Kbps
Width                            : 720 pixels
Height                           : 304 pixels
Display aspect ratio             : 2.35
Frame rate                       : 23.976 fps
Resolution                       : 24 bits
Colorimetry                      : 4:2:0
Scan type                        : Progressive
Bits/(Pixel*Frame)               : 0.401
Stream size                      : 1.52 GiB (70%)
Writing library                  : XviD 67

Audio #1
ID                               : 1
Format                           : AC-3
Format/Info                      : Audio Coding 3
Codec ID                         : 2000
Duration                         : 1h 43mn
Bit rate mode                    : Constant
Bit rate                         : 448 Kbps
Channel(s)                       : 6 channels
Channel positions                : Front: L C R, Surround: L R, LFE
Sampling rate                    : 48.0 KHz
Stream size                      : 332 MiB (15%)
Alignment                        : Split accross interleaves
Interleave, duration             : 42 ms (1.00 video frame)
Interleave, preload duration     : 500 ms
Title                            : Russian Dub [BD RUS]

Audio #2
ID                               : 2
Format                           : AC-3
Format/Info                      : Audio Coding 3
Codec ID                         : 2000
Duration                         : 1h 43mn
Bit rate mode                    : Constant
Bit rate                         : 448 Kbps
Channel(s)                       : 6 channels
Channel positions                : Front: L C R, Surround: L R, LFE
Sampling rate                    : 48.0 KHz
Video delay                      : 24ms
Stream size                      : 331 MiB (15%)
Alignment                        : Split accross interleaves
Interleave, duration             : 42 ms (1.00 video frame)
Interleave, preload duration     : 500 ms
Title                            : English

picpicpic
Для увеличения картинки щелкните мышкой по превью

Этот торрент недоступен для скачивания без регистрации, однако доступен по публичной magnet-ссылке (источники с публичных трекеров). Перед использованием ссылки прочтите, пожалуйста Пользовательское соглашение, а также как можно дольше оставайтесь на раздаче! Для того, чтобы скачать сам торрент-файл (который видит больше источников), а также для того, чтобы поблагодарить релизера, вам необходимо зарегистрироваться. Если регистрироваться лень - вы можете также попробовать скачать релиз по нашим партнерским ссылкам ниже.

[underverse.su].t66948.torrent
Трекер: Зарегистрирован   [ 09.06.2016 16:08 ]  

Статус: проверено (by HQ Underverse at 09.06.2016 16:18)
Поблагодарили: пока никто не поблагодарил...
Тип торрента: публичный - доступные источники с открытых трекеров: 
Размер: 2,18 GB (занимает 1/2 DVDR, для записи нужно 1 болванка DVDR/RW)
 
 
Похожие темы
Форум Тема Автор Торрент Отв. Посл. сооб.
Зарубежное кино [DVDRip, Low-Res HDRip, и т.д.] Неудержимые / The Expendables (Сильвестр Сталлоне) [2010 г., боевик, триллер, приключения, ..., DVDRip] THE_MECHANIC
0 | 0

7 | 2102

100

31.07.2012 19:34

Зарубежное кино [DVDRip, Low-Res HDRip, и т.д.] Неудержимые / The Expendables [2010 г., боевик, триллер, приключения , HDRip][Лицензия] P.O.C.O.X.A
0 | 0

1 | 1159

44

27.03.2011 15:17

Зарубежное кино [DVDRip, Low-Res HDRip, и т.д.] Неудержимые викинги / Sweaty Beards (Йоаким Ярдеби) [2010 г., комедия, DVDRip] RG NewCinema
6 | 0

0 | 890

30

16.09.2012 21:41

Зарубежное кино [DVDRip, Low-Res HDRip, и т.д.] Неудержимые 2 / The Expendables 2 (Саймон Уэст) [2012 г., Боевик, приключения, HDRip] Dub [Лицензия] 90ytr90
3 | 0

2 | 2150

305

08.10.2012 09:00

Зарубежное кино [DVDRip, Low-Res HDRip, и т.д.] Неудержимые 2 / The Expendables 2 (Саймон Уэст / Simon West) [2012, США, боевик, триллер, приключения, HDRip-AVC] Dub + Sub Rus + Original Eng Garnett
5 | 0

1 | 817

6

12.12.2012 18:59

Зарубежное кино [DVDRip, Low-Res HDRip, и т.д.] Неудержимые 2 / The Expendables 2 (Саймон Уэст) [2012 г., боевик, приключения, HDRip] Dub + Eng 90ytr90
12 | 0

0 | 1186

33

10.03.2013 16:48

Зарубежное кино [DVDRip, Low-Res HDRip, и т.д.] Неудержимые 2 / The Expendables 2 (Саймон Уэст) [2012 г., боевик, триллер, приключения, BDRip] AVO (Гоблин) + Dub Mahmud_1
4 | 0

0 | 1264

36

25.03.2013 12:10

Зарубежное кино [DVDRip, Low-Res HDRip, и т.д.] Неудержимый / Bullet to the Head (Уолтер Хилл) [2012 г., боевик, триллер, криминал, BDRip] Dub garry
10 | 0

0 | 1566

27

27.10.2013 13:12

Зарубежное кино [DVDRip, Low-Res HDRip, и т.д.] Неудержимый / Bullet to the Head (Уолтер Хилл) [2012 г., боевик, триллер, криминал, BDRip-AVC] Dub garry
3 | 0

0 | 610

22

27.10.2013 14:10

T Зарубежное кино [DVDRip, Low-Res HDRip, и т.д.] Неудержимые 3 / The Expendables 3 (Патрик Хьюз) [2014 г., боевик, триллер, приключения, WEB-DLRip] MVO + Original Паукан
0 | 2

0 | 2460

258

30.07.2014 10:10


Яндекс.Метрика powered by Sphinx


В Н И М А Н И Е
Сайт не распространяет и не хранит электронные версии произведений, а лишь бесплатно и без коммерческой выгоды (не требуя взамен платы,
SMS и т.д.) предоставляет доступ к создаваемому пользователями каталогу ссылок на торрент-файлы, которые содержат только списки хеш-сумм.
Убедительная просьба с жалобами обращаться напрямую к пользователю, разместившему торрент файл.

Вверх