Loading...
Error

Третий дракон / Treti sarkan (Петер Гледик) [1985 г., фантастика, семейный, TVRip-AVC] VO + Original

Статистика раздачи
Размер:  894 MB   |    Зарегистрирован:  5 месяцев 28 дней   |    Скачан:  3 раза

Полного источника не было: 2 часа 4 минуты

Сидов:  0  |  0 KB/s  ]   Личеров:  0  |  0 KB/s  ]

* - сиды/пиры с внешних источников

   
 
Автор Сообщение

makkol Пол:Муж

09-Июн-2016 15:23

Третий дракон / Tretí šarkan


Год выпуска: 1985
Жанр: фантастика, семейный
Производство: Чехословакия [Slovenská filmová tvorba Koliba (SFT)]
Режиссер: Петер Гледик
В ролях: Патрик Шима, Ян Крижик, Борис Трстян, Радован Лукавски, Мариан Словак, Франтишек Гусак, Яромир Кучера, Мариан Сотник
Сюжет фильма:
Название «Третий дракон» относится к третьему космическому кораблю, посланному на Землю с умирающей планеты Лурида. Лурида умирает из-за того, что загрязнение воздуха, воды и почвы вышло из-под контроля. Спрятанный в шахте Драконьей горы космический корабль находят три мальчика, которые решили исследовать эту территорию.

Космический корабль был послан на Землю в Средние века для того, чтобы узнать, как земляне сдерживают процесс загрязнения, но так как он прибывает на Землю немного рано, он ждёт своего времени. Мальчики «засыпают» в корабле и в это время он их перемещает на Луриду, где они наблюдают ужасный эффект небрежного отношения к природе. Конечно же, они помогают спасти планету и возвращаются на Землю вовремя, чтобы предупредить взрослых об их будущем, если не защищать природу от загрязнения.

  • Мировая премьера: 11 октября 1985


Качество видео: TVRip-AVC

Продолжительность: 01:12:32
Формат: MKV
Видео: MPEG-4 AVC, 614x460 (4:3), 25.000 fps, 1400 kbps
Аудио #1: русский, любительский одноголосый закадровый, AC3 2.0, 44.1 kHz, 128 kbps
Аудио #2: английский, оригинал, AC3 2.0, 48 kHz, 192 kbps

Код:

Формат                                   : Matroska
Версия формата                           : Version 4 / Version 2
Размер файла                             : 894 Мбайт
Продолжительность                        : 1 ч. 12 м.
Общий поток                              : 1722 Кбит/сек
Дата кодирования                         : UTC 2015-05-29T19:40:06Z
Программа кодирования                    : mkvmerge v7.9.0 ('Birds') 64bit
Библиотека кодирования                   : Lavf56.1.0

Видео
Идентификатор                            : 1
Формат                                   : AVC
Формат/Информация                        : Advanced Video Codec
Профиль формата                          : High@L4.1
Параметр CABAC формата                   : Нет
Параметр ReFrames формата                : 16 кадров
Идентификатор кодека                     : V_MPEG4/ISO/AVC
Продолжительность                        : 1 ч. 12 м.
Битрейт                                  : 1400 Кбит/сек
Ширина                                   : 614 пикселей
Высота                                   : 460 пикселей
Соотношение сторон                       : 4:3
Режим частоты кадров                     : Постоянный
Частота кадров                           : 25,000 кадров/сек
Цветовое пространство                    : YUV
Субдискретизация насыщенности            : 4:2:0
Битовая глубина                          : 8 бит
Тип развёртки                            : Прогрессивная
Бит/(Пиксели*Кадры)                      : 0.198
Размер потока                            : 710 Мбайт (79%)
Библиотека кодирования                   : x264 core 144 r2525 40bb568
Настройки программы                      : cabac=0 / ref=16 / deblock=0:-1:-1 / analyse=0x3:0x133 / me=umh / subme=10 / psy=1 / psy_rd=1.00:0.15 / mixed_ref=1 / me_range=24 / chroma_me=1 / trellis=2 / 8x8dct=1 / cqm=0 / deadzone=21,11 / fast_pskip=1 / chroma_qp_offset=-3 / threads=12 / lookahead_threads=2 / sliced_threads=0 / nr=0 / decimate=1 / interlaced=0 / bluray_compat=0 / constrained_intra=0 / bframes=8 / b_pyramid=2 / b_adapt=2 / b_bias=0 / direct=3 / weightb=0 / open_gop=0 / weightp=0 / keyint=250 / keyint_min=25 / scenecut=40 / intra_refresh=0 / rc_lookahead=60 / rc=2pass / mbtree=1 / bitrate=1400 / ratetol=1.0 / qcomp=0.60 / qpmin=0 / qpmax=69 / qpstep=4 / cplxblur=20.0 / qblur=0.5 / vbv_maxrate=62500 / vbv_bufsize=78125 / nal_hrd=none / filler=0 / ip_ratio=1.40 / aq=1:1.00
Default                                  : Да
Forced                                   : Нет
Цветовой диапазон                        : Limited
Основные цвета                           : BT.601 PAL
Характеристики трансфера                 : BT.709
Коэффициенты матрицы                     : BT.601

Аудио #1
Идентификатор                            : 2
Формат                                   : AC-3
Формат/Информация                        : Audio Coding 3
Расширение режима                        : CM (complete main)
Параметр Endianness формата              : Big
Идентификатор кодека                     : A_AC3
Продолжительность                        : 1 ч. 12 м.
Вид битрейта                             : Постоянный
Битрейт                                  : 128 Кбит/сек
Каналы                                   : 2 канала
Расположение каналов                     : Front: L R
Частота                                  : 44,1 КГц
Метод сжатия                             : С потерями
Задержка видео                           : -80 мс.
Размер потока                            : 66,4 Мбайт (7%)
Заголовок                                : Никита Бакулин
Default                                  : Да
Forced                                   : Нет

Аудио #2
Идентификатор                            : 3
Формат                                   : AC-3
Формат/Информация                        : Audio Coding 3
Расширение режима                        : CM (complete main)
Параметр Endianness формата              : Big
Идентификатор кодека                     : A_AC3
Продолжительность                        : 1 ч. 12 м.
Вид битрейта                             : Постоянный
Битрейт                                  : 192 Кбит/сек
Каналы                                   : 2 канала
Расположение каналов                     : Front: L R
Частота                                  : 48,0 КГц
Метод сжатия                             : С потерями
Задержка видео                           : -5 мс.
Размер потока                            : 99,6 Мбайт (11%)
Язык                                     : Slovak
Default                                  : Нет
Forced                                   : Нет
Перевод: kosmoaelita, dido123
Озвучивание: Никита Бакулин aka Ace34
Релиз от:
picpicpicpicpic
Для увеличения картинки щелкните мышкой по превью

Этот торрент недоступен для скачивания без регистрации, однако доступен по публичной magnet-ссылке (источники с публичных трекеров). Перед использованием ссылки прочтите, пожалуйста Пользовательское соглашение, а также как можно дольше оставайтесь на раздаче! Для того, чтобы скачать сам торрент-файл (который видит больше источников), а также для того, чтобы поблагодарить релизера, вам необходимо зарегистрироваться. Если регистрироваться лень - вы можете также попробовать скачать релиз по нашим партнерским ссылкам ниже.

[underverse.su].t66943.torrent
Трекер: Зарегистрирован   [ 09.06.2016 15:23 ]  

Статус: проверено (by makkol at 11.06.2016 22:20)
Поблагодарили: пока никто не поблагодарил...
Тип торрента: публичный - доступные источники с открытых трекеров: 
Размер: 894 MB (занимает 0,2 DVDR, для записи нужно 1 болванка DVDR/RW)
 
 

Яндекс.Метрика powered by Sphinx


В Н И М А Н И Е
Сайт не распространяет и не хранит электронные версии произведений, а лишь бесплатно и без коммерческой выгоды (не требуя взамен платы,
SMS и т.д.) предоставляет доступ к создаваемому пользователями каталогу ссылок на торрент-файлы, которые содержат только списки хеш-сумм.
Убедительная просьба с жалобами обращаться напрямую к пользователю, разместившему торрент файл.

Вверх