Loading...
Error

Величайшая битва Юлия Цезаря / Julius Caesar's Greatest Battle [2004 г., документальный, история, реконструкция, IPTVRemux] Dub

Статистика раздачи
Размер:  955 MB   |    Зарегистрирован:  6 месяцев   |    Скачан:  7 раз

Полного источника не было: 13 дней

Сидов:  0  |  0 KB/s  ]   Личеров:  0  |  0 KB/s  ]

* - сиды/пиры с внешних источников

   
 
Автор Сообщение

ARI71 Пол:Муж

08-Июн-2016 14:26

Величайшая битва Юлия Цезаря / Julius Caesar's Greatest Battle


Год выпуска: 2004
Жанр: документальный, история, реконструкция
Страна: Великобритания ВВС
Режиссер: Мелани Арчер, Вильям Лайонс
В ролях: Марк Корби, Нейл Фолкнер, Майкл Прайед
Сюжет фильма:
С 58-го по 50-й год до н.э. войска Древнего Рима под командованием Гая Юлия Цезаря вели кровопролитные бои против Галлии. За время войны было разрушено множество галльских городов, убито более миллиона человек, а около миллиона было взято римлянами в плен. В 52-м году до н.э. вождь одного из кельтских племен Верцингеторикс возглавил объединенное восстание галлов против непобедимых римских воинов. Документальный фильм канала BBC рассказывает о величайшей битве между этими отважными предводителями, исход которой изменил весь мир, оказал влияние на дальнейшую судьбу Европы и навсегда прославил имя Цезаря.
Качество видео: IPTVRemux

Продолжительность: 00:49:25
Формат: MKV
Видео: V_MPEG4/ISO/AVC, 720x576, ~2457 kbps
Аудио: русский, (дублированный), AC3 2.0, ~192.00 kbps

Код:

Общее
Уникальный идентификатор : 212867776333307403674234047777757832275 (0xA024D7ABB0DA1B05B87BDF14C3E1A453)
Полное имя : D:\Velichajshaja bitva Julija Cezarja.mkv
Формат : Matroska
Версия формата : Version 2
Размер файла : 955 Мбайт
Продолжительность : 49 м.
Общий поток : 2703 Кбит/сек
Дата кодирования : UTC 2016-05-02 02:54:24
Программа кодирования : mkvmerge v4.0.0 ('The Stars were mine') сборка от Jun 6 2010 16:18:42
Библиотека кодирования : libebml v1.0.0 + libmatroska v1.0.0

Видео
Идентификатор : 1
Формат : AVC
Формат/Информация : Advanced Video Codec
Профиль формата : Baseline@L4.1
Параметр CABAC формата : Нет
Параметр ReFrames формата : 3 кадра
Идентификатор кодека : V_MPEG4/ISO/AVC
Продолжительность : 49 м.
Битрейт : 2457 Кбит/сек
Ширина : 720 пикселей
Высота : 576 пикселей
Соотношение сторон : 5:4
Режим частоты кадров : Постоянный
Частота кадров : 25,000 кадров/сек
Стандарт вещания : PAL
Цветовое пространство : YUV
Субдискретизация насыщенности : 4:2:0
Битовая глубина : 8 бит
Тип развёртки : Прогрессивная
Бит/(Пиксели*Кадры) : 0.237
Размер потока : 868 Мбайт (91%)
Default : Да
Forced : Нет

Аудио
Идентификатор : 2
Формат : AC-3
Формат/Информация : Audio Coding 3
Профиль формата : Dolby Digital
Расширение режима : CM (complete main)
Параметр Endianness формата : Big
Идентификатор кодека : A_AC3
Продолжительность : 49 м.
Вид битрейта : Постоянный
Битрейт : 192 Кбит/сек
Каналы : 2 канала
Расположение каналов : Front: L R
Частота : 48,0 КГц
Частота кадров : 31,250 кадров/сек (1536 spf)
Метод сжатия : С потерями
Размер потока : 67,9 Мбайт (7%)
Default : Да
Forced : Нет
picpicpicpicpic
Для увеличения картинки щелкните мышкой по превью

Этот торрент недоступен для скачивания без регистрации, однако доступен по публичной magnet-ссылке (источники с публичных трекеров). Перед использованием ссылки прочтите, пожалуйста Пользовательское соглашение, а также как можно дольше оставайтесь на раздаче! Для того, чтобы скачать сам торрент-файл (который видит больше источников), а также для того, чтобы поблагодарить релизера, вам необходимо зарегистрироваться. Если регистрироваться лень - вы можете также попробовать скачать релиз по нашим партнерским ссылкам ниже.

[underverse.su].t66911.torrent
Трекер: Зарегистрирован   [ 08.06.2016 14:26 ]  

Статус: проверено (by makkol at 08.06.2016 21:55)
Поблагодарили: пока никто не поблагодарил...
Тип торрента: публичный - доступные источники с открытых трекеров: 
Размер: 955 MB (занимает 0,21 DVDR, для записи нужно 1 болванка DVDR/RW)
 
 

Яндекс.Метрика powered by Sphinx


В Н И М А Н И Е
Сайт не распространяет и не хранит электронные версии произведений, а лишь бесплатно и без коммерческой выгоды (не требуя взамен платы,
SMS и т.д.) предоставляет доступ к создаваемому пользователями каталогу ссылок на торрент-файлы, которые содержат только списки хеш-сумм.
Убедительная просьба с жалобами обращаться напрямую к пользователю, разместившему торрент файл.

Вверх