Loading...
Error

Не укради / Красть запрещено / Proibito rubare (Луиджи Коменчини) [1948 г., драма, DVDRip] AVO + Original

Статистика раздачи
Размер:  1,46 GB   |    Зарегистрирован:  1 год 5 месяцев   |    Скачан:  1 раз

Полного источника не было: 1 год 5 месяцев

Сидов:  0  |  0 KB/s  ]   Личеров:  0  |  0 KB/s  ]

* - сиды/пиры с внешних источников

   
 
Автор Сообщение

makkol Пол:Муж

08-Июн-2016 14:10

Не укради / Красть запрещено / Proibito rubare


Год выпуска: 1948
Жанр: драма
Производство: Италия [Lux Film]
Режиссер: Луиджи Коменчини
В ролях: Адольфо Чели, Тина Пика, Марио Руссо, Клементе Де Мишель, Карло Делла Поста, Карло Барбиери, Этторе Маттиа
Сюжет фильма:
У миссионера дона Пьетро, направляющегося в Африку, крадут чемодан на вокзале в Неаполе. Пытаясь вернуть чемодан, он вдруг обнаруживает, в какой нищете живет весь город и в особенности - дети. Он решает остаться в Неаполе и основать в полуразрушенном здании "Город детей" - приют для малолетних воришек, эксплуатируемых взрослыми...

Фильм снят по рассказу Джиджи Мартелло. Это первый художественный фильм Луиджи Коменчини.

  • Мировая премьера: 10 сентября 1948


Качество видео: DVDRip

Продолжительность: 01:19:31
Формат: AVI
Видео: DivX, 704x512 (1.37:1), 25.000 fps, 2226 kbps
Аудио #1: русский, авторский одноголосый закадровый (Вадим Белов), AC3 2.0, 48 kHz, 192 kbps
Аудио #2: итальянский, оригинал, AC3 2.0, 48 kHz, 192 kbps

Код:

Формат : AVI
Формат/Информация : Audio Video Interleave
Размер файла : 1,46 Гбайт
Продолжительность : 1 ч. 19 м.
Общий поток : 2624 Кбит/сек
Программа кодирования : VirtualDubMod 1.5.10.3 | www.virtualdub-fr.org || (build 2550/release)
Библиотека кодирования : VirtualDubMod build 2550/release

Видео
Идентификатор : 0
Формат : MPEG-4 Visual
Профиль формата : Advanced Simple@L5
Параметр BVOP формата : 2
Параметр QPel формата : Нет
Параметр GMC формата : Без точки перехода
Параметр матрицы формата : Default (H.263)
Идентификатор кодека : DX50
Идентификатор кодека/Подсказка : DivX 5
Продолжительность : 1 ч. 19 м.
Битрейт : 2226 Кбит/сек
Ширина : 704 пикселя
Высота : 512 пикселей
Соотношение сторон : 1,375
Частота кадров : 25,000 кадров/сек
Цветовое пространство : YUV
Субдискретизация насыщенности : 4:2:0
Битовая глубина : 8 бит
Тип развёртки : Прогрессивная
Метод сжатия : С потерями
Бит/(Пиксели*Кадры) : 0.247
Размер потока : 1,24 Гбайт (85%)
Библиотека кодирования : XviD 73

Аудио #1
Идентификатор : 1
Формат : AC-3
Формат/Информация : Audio Coding 3
Расширение режима : CM (complete main)
Параметр Endianness формата : Big
Идентификатор кодека : 2000
Продолжительность : 1 ч. 19 м.
Вид битрейта : Постоянный
Битрейт : 192 Кбит/сек
Каналы : 2 канала
Расположение каналов : Front: L R
Частота : 48,0 КГц
Битовая глубина : 16 бит
Метод сжатия : С потерями
Размер потока : 109 Мбайт (7%)
Выравнивание : Разделение по промежуткам
Продолжительность промежутка : 40 мс. (1,00 видеокадр)
Время предзагрузки промежутка : 500 мс.

Аудио #2
Идентификатор : 2
Формат : AC-3
Формат/Информация : Audio Coding 3
Расширение режима : CM (complete main)
Параметр Endianness формата : Big
Идентификатор кодека : 2000
Продолжительность : 1 ч. 19 м.
Вид битрейта : Постоянный
Битрейт : 192 Кбит/сек
Каналы : 2 канала
Расположение каналов : Front: L R
Частота : 48,0 КГц
Битовая глубина : 16 бит
Метод сжатия : С потерями
Размер потока : 109 Мбайт (7%)
Выравнивание : Разделение по промежуткам
Продолжительность промежутка : 40 мс. (1,00 видеокадр)
Время предзагрузки промежутка : 500 мс.
Проект посвящен 100-летию Луиджи Коменчини (8 июня 1916 - 6 апреля 2007)
Перевод и озвучивание: Вадим Белов
Работа со звуком и реавторинг DVD: AlekceyR76
Большое Спасибо всем, кто принял участие в появлении перевода и озвучки к этому фильму: Магда, lafajet, jasenka, елена 22, yanaelisa, old76, cementit, борюська, voostorg, HippopotamusIV, Ugo927, mangust1, spartakeynoir, zeleniydzhan, GalaUkr, mumzik69, BaluBaly
picpicpicpicpic
Для увеличения картинки щелкните мышкой по превью

Этот торрент недоступен для скачивания без регистрации, однако доступен по публичной magnet-ссылке (источники с публичных трекеров). Перед использованием ссылки прочтите, пожалуйста Пользовательское соглашение, а также как можно дольше оставайтесь на раздаче! Для того, чтобы скачать сам торрент-файл (который видит больше источников), а также для того, чтобы поблагодарить релизера, вам необходимо зарегистрироваться. Если регистрироваться лень - вы можете также попробовать скачать релиз по нашим партнерским ссылкам ниже.

[underverse.su].t66910.torrent
Трекер: Зарегистрирован   [ 08.06.2016 14:10 ]  

Статус: проверено (by makkol at 08.06.2016 23:20)
Поблагодарили: пока никто не поблагодарил...
Тип торрента: публичный - доступные источники с открытых трекеров: 
Размер: 1,46 GB (занимает 1/3 DVDR, для записи нужно 1 болванка DVDR/RW)
 
 

Яндекс.Метрика powered by Sphinx


В Н И М А Н И Е
Сайт не распространяет и не хранит электронные версии произведений, а лишь бесплатно и без коммерческой выгоды (не требуя взамен платы,
SMS и т.д.) предоставляет доступ к создаваемому пользователями каталогу ссылок на торрент-файлы, которые содержат только списки хеш-сумм.
Убедительная просьба с жалобами обращаться напрямую к пользователю, разместившему торрент файл.

Вверх