Loading...
Error

Поездка налегке / Free Ride [2016 г., документальный, приключения, HDTV 1080i] DVO

Статистика раздачи
Размер:  13,76 GB   |    Зарегистрирован:  5 месяцев 24 дня   |    Скачан:  2 раза

Полного источника не было: 5 месяцев 4 дня

Сидов:  0  |  0 KB/s  ]   Личеров:  0  |  0 KB/s  ]

* - сиды/пиры с внешних источников

   
 
Автор Сообщение

ARI71 Пол:Муж

08-Июн-2016 13:07

Поездка налегке / Free Ride


Год выпуска: 2016
Жанр: документальный, приключения
Страна: США Discovery Channel
Перевод: русский, двухголосый (профессиональный)
В ролях: Роб Гринфилд, Джеймс Левелл
Сюжет фильма:
Многие считают, что деньги правят миром, но эколог-экстремал Роб Гринфилд собирается доказать, что человеческая доброта и взаимовыручка дороже любых денег. Вместе с режиссером-документалистом Джеймсом Левеллом он ставит невероятный эксперимент: его цель – преодолеть 9000 километров от Бразилии до Панамы без единого цента в кармане. Никаких денег, никаких кредитных карт – только вера в себя и в незнакомых людей, которые встретятся на этом долгом пути.
Качество видео: HDTV 1080i

Продолжительность: 6 x ~ 00:44:00
Формат: MPEG-TS
Видео: AVC, 1920x1080 (16:9), 30,000 fps, High@L4.1, ~7000 kbps, 0.113 bit/pixel
Аудио: 48,0 kHz, MP2, 2 ch, ~224.00 Кбит/с

Код:

Общее
Идентификатор : 1 (0x1)
Полное имя : D:\Поездка налегке.1080i RG HitWay\01. Поездка налегке.ts
Формат : MPEG-TS
Размер файла : 2,29 Гбайт
Продолжительность : 43 м.
Режим общего битрейта : Переменный
Общий поток : 7467 Кбит/сек

Видео
Идентификатор : 224 (0xE0)
Идентификатор меню : 1 (0x1)
Формат : AVC
Формат/Информация : Advanced Video Codec
Профиль формата : High@L4.1
Параметр CABAC формата : Да
Параметр ReFrames формата : 3 кадра
Идентификатор кодека : 27
Продолжительность : 43 м.
Вид битрейта : Постоянный
Битрейт : 7000 Кбит/сек
Ширина : 1920 пикселей
Высота : 1080 пикселей
Соотношение сторон : 16:9
Частота кадров : 30,000 кадров/сек
Стандарт вещания : NTSC
Цветовое пространство : YUV
Субдискретизация насыщенности : 4:2:0
Битовая глубина : 8 бит
Тип развёртки : Прогрессивная
Бит/(Пиксели*Кадры) : 0.113
Размер потока : 2,11 Гбайт (92%)
Цветовой диапазон : Limited
Основные цвета : BT.709
Характеристики трансфера : BT.709
Коэффициенты матрицы : BT.709

Аудио
Идентификатор : 4097 (0x1001)
Идентификатор меню : 1 (0x1)
Формат : MPEG Audio
Версия формата : Version 1
Профиль формата : Layer 2
Идентификатор кодека : 3
Продолжительность : 43 м.
Вид битрейта : Постоянный
Битрейт : 224 Кбит/сек
Каналы : 2 канала
Частота : 48,0 КГц
Метод сжатия : С потерями
Задержка видео : 21 мс.
Размер потока : 70,3 Мбайт (3%)
Язык : English
picpicpicpicpic
Для увеличения картинки щелкните мышкой по превью

Этот торрент недоступен для скачивания без регистрации, однако доступен по публичной magnet-ссылке (источники с публичных трекеров). Перед использованием ссылки прочтите, пожалуйста Пользовательское соглашение, а также как можно дольше оставайтесь на раздаче! Для того, чтобы скачать сам торрент-файл (который видит больше источников), а также для того, чтобы поблагодарить релизера, вам необходимо зарегистрироваться. Если регистрироваться лень - вы можете также попробовать скачать релиз по нашим партнерским ссылкам ниже.

[underverse.su].t66909.torrent
Трекер: Зарегистрирован   [ 08.06.2016 13:07 ]  

Статус: проверено (by makkol at 08.06.2016 13:48)
Поблагодарили: пока никто не поблагодарил...
Тип торрента: публичный - доступные источники с открытых трекеров: 
Размер: 13,76 GB (занимает 3,14 DVDR, для записи нужно 4 болванки DVDR/RW)
 
 
Похожие темы
Форум Тема Автор Торрент Отв. Посл. сооб.
Зарубежное кино [DVDRip, Low-Res HDRip, и т.д.] Поездка на возу 2 / Hayride 2 (Terron R. Parsons) [2015 г., ужасы, боевик, триллер, WEB-DLRip] DVO (DeadSno & den904) + Original (Eng) 90ytr90
105 | 6

0 | 564

15

09.03.2015 18:19

Discovery Поездка налегке / Free Ride (1-6 серии из 6) [2016 г., документальный, приключения, экстрим, HDTVRip] DVO ARI71
0 | 0

1 | 1135

1

25.05.2016 08:52


Яндекс.Метрика powered by Sphinx


В Н И М А Н И Е
Сайт не распространяет и не хранит электронные версии произведений, а лишь бесплатно и без коммерческой выгоды (не требуя взамен платы,
SMS и т.д.) предоставляет доступ к создаваемому пользователями каталогу ссылок на торрент-файлы, которые содержат только списки хеш-сумм.
Убедительная просьба с жалобами обращаться напрямую к пользователю, разместившему торрент файл.

Вверх