Loading...
Error

В твоих глазах / In your eyes (Брин Хилл) [2014 г., фантастика, мелодрама, WEB-DLRip] DVO

Статистика раздачи
Размер:  1,46 GB   |    Зарегистрирован:  5 месяцев   |    Скачан:  8 раз

Полного источника не было: 1 день 14 часов

Сидов:  0  |  0 KB/s  ]   Личеров:  0  |  0 KB/s  ]

* - сиды/пиры с внешних источников

   
 
Автор Сообщение

makkol Пол:Муж

08-Июн-2016 11:19

В твоих глазах / In your eyes


Год выпуска: 2014
Жанр: фантастика, мелодрама
Страна: США [Bellwether Pictures, Night and Day Pictures]
Режиссер: Брин Хилл
В ролях: Зои Казан, Майкл Сталь-Дэвид, Никки Рид, Стив Харрис, Марк Фойерстин, Дженнифер Грей, Стив Хоуи, Дэвид Галлахер, Рик Куррье, Престон Бэйли
Сюжет фильма:
Фильм рассказывает историю двух абсолютно разных людей, которые находятся в разных городах и ведут совершенно отличающуюся друг от друга жизнь. Но они оба имеют мощную связь между собой, и могут слышать и видеть друг друга на расстоянии.

  • Мировая премьера: 20 апреля 2014


Качество видео: WEB-DLRip

Продолжительность: 01:45:44
Формат: AVI
Видео: XviD, 720x400 (16:9), 23.976 fps, 1777 kbps
Аудио: русский, любительский двухголосый закадровый (SoftBox), AC3 2.0, 44.1 kHz, 192 kbps

Код:

Format : AVI
Format/Info : Audio Video Interleave
File size : 1.46 GiB
Duration : 1h 45mn
Overall bit rate : 1 978 Kbps
Writing application : VirtualDubMod 1.5.10.3 | www.virtualdub-fr.org || (build 2550/release)
Writing library : VirtualDubMod build 2550/release

Video
ID : 0
Format : MPEG-4 Visual
Format profile : Advanced Simple@L5
Format settings, BVOP : 1
Format settings, QPel : No
Format settings, GMC : No warppoints
Format settings, Matrix : Default (MPEG)
Codec ID : XVID
Codec ID/Hint : XviD
Duration : 1h 45mn
Bit rate : 1 777 Kbps
Width : 720 pixels
Height : 400 pixels
Display aspect ratio : 16:9
Frame rate : 23.976 (23976/1000) fps
Color space : YUV
Chroma subsampling : 4:2:0
Bit depth : 8 bits
Scan type : Progressive
Compression mode : Lossy
Bits/(Pixel*Frame) : 0.257
Stream size : 1.31 GiB (90%)
Writing library : XviD 73

Audio
ID : 1
Format : AC-3
Format/Info : Audio Coding 3
Mode extension : CM (complete main)
Format settings, Endianness : Big
Codec ID : 2000
Duration : 1h 45mn
Bit rate mode : Constant
Bit rate : 192 Kbps
Channel(s) : 2 channels
Channel positions : Front: L R
Sampling rate : 44.1 KHz
Frame rate : 28.711 fps (1536 spf)
Compression mode : Lossy
Stream size : 145 MiB (10%)
Alignment : Split accross interleaves
Interleave, duration : 42 ms (1.00 video frame)
Interleave, preload duration : 500 ms
picpicpicpicpic
Для увеличения картинки щелкните мышкой по превью

Этот торрент недоступен для скачивания без регистрации, однако доступен по публичной magnet-ссылке (источники с публичных трекеров). Перед использованием ссылки прочтите, пожалуйста Пользовательское соглашение, а также как можно дольше оставайтесь на раздаче! Для того, чтобы скачать сам торрент-файл (который видит больше источников), а также для того, чтобы поблагодарить релизера, вам необходимо зарегистрироваться. Если регистрироваться лень - вы можете также попробовать скачать релиз по нашим партнерским ссылкам ниже.

[underverse.su].t66905.torrent
Трекер: Зарегистрирован   [ 08.06.2016 11:19 ]  

Статус: проверено (by makkol at 08.06.2016 23:19)
Поблагодарили: 1 человек
Тип торрента: публичный - доступные источники с открытых трекеров: 
Размер: 1,46 GB (занимает 0,33 DVDR, для записи нужно 1 болванка DVDR/RW)
 
 
Похожие темы
Форум Тема Автор Торрент Отв. Посл. сооб.
Зарубежное кино [DVDRip, Low-Res HDRip, и т.д.] В твоих глазах / In Your Eyes (Брин Хилл) [2014 г., мелодрама, драма, фантастика, WEB-DLRip] VO + Original + Sub(Rus,Eng) Паукан
19 | 1

1 | 646

21

10.01.2015 14:05

Наше кино [DVDRip, Low-Res HDRip, и т.д.] В твоих глазах (Игорь Копылов) [2011 г., криминальный фильм, мелодрама, SatRip] konopic
4 | 0

0 | 278

5

09.04.2014 08:34

Зарубежное кино [HDDVDRip / BDRip / WEB-DL / HDTV 1080/720р] В твоих глазах / In Your Eyes (Брин Хилл / Brin Hill) [2014 г., фантастика, драма, мелодрама, комедия, WEB-DLRip 720p] VO [Евгений Данилов] + Original Паукан
19 | 0

0 | 731

19

12.08.2014 12:50


Яндекс.Метрика powered by Sphinx


В Н И М А Н И Е
Сайт не распространяет и не хранит электронные версии произведений, а лишь бесплатно и без коммерческой выгоды (не требуя взамен платы,
SMS и т.д.) предоставляет доступ к создаваемому пользователями каталогу ссылок на торрент-файлы, которые содержат только списки хеш-сумм.
Убедительная просьба с жалобами обращаться напрямую к пользователю, разместившему торрент файл.

Вверх