Loading...
Error

Эффект рения / Effect of Rhenium [2014 г., документальный, научно-познавательный, DVB]

Статистика раздачи
Размер:  910 MB   |    Зарегистрирован:  6 месяцев   |    Скачан:  4 раза
Сидов:  1  |  0 KB/s  ]   Личеров:  0  |  0 KB/s  ]

* - сиды/пиры с внешних источников

   
 
Автор Сообщение

ARI71 Пол:Муж

08-Июн-2016 11:11

Эффект рения / Effect of Rhenium


Год выпуска: 2014
Жанр: документальный, научно-познавательный
Страна: Россия Центр национального фильма (ЦНФ)
Режиссер: Дмитрий Семибратов
Сюжет фильма:
О невероятном открытии месторождения самого редкого в мире металла - рения в кратере вулкана на Курильском острове Итуруп. Рений - редчайший элемент на нашей планете. Его количество в пять раз меньше, чем золота, в сто раз меньше, чем серебра и в тысячу раз меньше в сравнении с вольфрамом. Существование рения было предсказано еще в 1871 году великим русским ученым, автором Периодической Таблицы химических элементов Дмитрием Менделеевым. Хотя найти загадочный элемент оказалось нелегкой задачей.
Качество видео: DVB

Продолжительность: 00:52:02
Формат: MKV
Видео: V_MPEG4/ISO/AVC, 720x576, ~2139 kbps
Аудио: русский, оригинал, MP2 2.0, ~256.00 kbps

Доп. информация: Запись потока *.ts с наземного цифрового телеканала "Беларусь 3", ремукс в *.mkv программой VideoReDo. Залил: AND03AND

Код:

Общее
Уникальный идентификатор : 224989799324572646549336110925592533609 (0xA943758C2BBAC624F48D0D7A02461A69)
Полное имя : D:\Эффект рения (2014).mkv
Формат : Matroska
Версия формата : Version 2
Размер файла : 910 Мбайт
Продолжительность : 52 м.
Общий поток : 2444 Кбит/сек
Программа кодирования : Lavf52.64.2
Библиотека кодирования : Lavf52.64.2

Видео
Идентификатор : 1
Формат : AVC
Формат/Информация : Advanced Video Codec
Профиль формата : Main@L3
Параметр CABAC формата : Да
Параметр ReFrames формата : 4 кадра
Параметр GOP формата : M=4, N=24
Идентификатор кодека : V_MPEG4/ISO/AVC
Продолжительность : 52 м.
Битрейт : 2139 Кбит/сек
Ширина : 720 пикселей
Высота : 576 пикселей
Соотношение сторон : 4:3
Соотношение сторон в оригинале : 4:3
Режим частоты кадров : Постоянный
Частота кадров : 25,000 кадров/сек
Стандарт вещания : PAL
Цветовое пространство : YUV
Субдискретизация насыщенности : 4:2:0
Битовая глубина : 8 бит
Тип развёртки : MBAFF
Метод сохранения типа развёртки : Чередующиеся поля
Порядок развёртки : Верхнее поле первое
Бит/(Пиксели*Кадры) : 0.206
Размер потока : 796 Мбайт (88%)
Default : Да
Forced : Нет
Цветовой диапазон : Limited
Основные цвета : BT.601 PAL
Характеристики трансфера : BT.470 System B, BT.470 System G
Коэффициенты матрицы : BT.601

Аудио
Идентификатор : 2
Формат : MPEG Audio
Версия формата : Version 1
Профиль формата : Layer 2
Идентификатор кодека : A_MPEG/L2
Идентификатор кодека/Подсказка : MP2
Продолжительность : 52 м.
Вид битрейта : Постоянный
Битрейт : 256 Кбит/сек
Каналы : 2 канала
Частота : 48,0 КГц
Метод сжатия : С потерями
Размер потока : 95,3 Мбайт (10%)
Язык : English
Default : Да
Forced : Нет
picpicpicpicpic
Для увеличения картинки щелкните мышкой по превью

Этот торрент недоступен для скачивания без регистрации, однако доступен по публичной magnet-ссылке (источники с публичных трекеров). Перед использованием ссылки прочтите, пожалуйста Пользовательское соглашение, а также как можно дольше оставайтесь на раздаче! Для того, чтобы скачать сам торрент-файл (который видит больше источников), а также для того, чтобы поблагодарить релизера, вам необходимо зарегистрироваться. Если регистрироваться лень - вы можете также попробовать скачать релиз по нашим партнерским ссылкам ниже.

[underverse.su].t66904.torrent
Трекер: Зарегистрирован   [ 08.06.2016 11:11 ]  

Статус: проверено (by makkol at 08.06.2016 13:52)
Поблагодарили: пока никто не поблагодарил...
Тип торрента: публичный - доступные источники с открытых трекеров: 
Размер: 910 MB (занимает 0,2 DVDR, для записи нужно 1 болванка DVDR/RW)
 
 

Яндекс.Метрика powered by Sphinx


В Н И М А Н И Е
Сайт не распространяет и не хранит электронные версии произведений, а лишь бесплатно и без коммерческой выгоды (не требуя взамен платы,
SMS и т.д.) предоставляет доступ к создаваемому пользователями каталогу ссылок на торрент-файлы, которые содержат только списки хеш-сумм.
Убедительная просьба с жалобами обращаться напрямую к пользователю, разместившему торрент файл.

Вверх