Loading...
Error

Специальный полуночный выпуск / Midnight Special (Джефф Николс) [2016 г., фантастика, триллер, драма, приключения, HDRip] MVO

Статистика раздачи
Размер:  1,37 GB   |    Зарегистрирован:  5 месяцев 27 дней   |    Скачан:  20 раз

Полного источника не было: 14 часов

Сидов:  0  |  0 KB/s  ]   Личеров:  0  |  0 KB/s  ]

* - сиды/пиры с внешних источников

   
 
Автор Сообщение

makkol Пол:Муж

08-Июн-2016 10:28

Специальный полуночный выпуск / Midnight Special


Год выпуска: 2016
Жанр: фантастика, триллер, драма, приключения
Производство: США [Tri-State Pictures, Warner Bros. Pictures]
Режиссер: Джефф Николс
В ролях: Майкл Шеннон, Джоэл Эдгертон, Кирстен Данст, Джейден Либерер, Адам Драйвер, Билл Кэмп, Скотт Хэйз, Сэм Шепард, Пол Спаркс, Дэвид Дженсен
Сюжет фильма:
Отец узнает, что природа одарила его сына сверхъестественными способностями. Понимая, что ими скоро заинтересуются спецслужбы, семья вынуждена скрываться...

  • Мировая премьера: 12 февраля 2016


Качество видео: HDRip

Продолжительность: 01:51:55
Формат: AVI
Видео: XviD, 720x304 (2.35:1), 23.976 fps, 1183 kbps
Аудио: русский, любительский многоголосый закадровый (Paradox & Omskbird records), AC3 5.1, 48 kHz, 448 kbps

Код:

Format : AVI
Format/Info : Audio Video Interleave
Overall bit rate : 1 642 Kbps
Writing application : VirtualDubMod 1.5.10.3 | (build 2550/release)
Writing library : VirtualDubMod build 2550/release

Video
ID : 0
Format : MPEG-4 Visual
Format profile : Advanced Simple@L5
Format settings, BVOP : 2
Format settings, QPel : No
Format settings, GMC : No warppoints
Format settings, Matrix : Custom
Codec ID : XVID
Codec ID/Hint : XviD
Bit rate : 1 183 Kbps
Width : 720 pixels
Height : 304 pixels
Display aspect ratio : 2.35:1
Frame rate : 23.976 fps
Color space : YUV
Chroma subsampling : 4:2:0
Bit depth : 8 bits
Scan type : Progressive
Compression mode : Lossy
Bits/(Pixel*Frame) : 0.225
Stream size : 9.75 MiB (72%)
Writing library : XviD 1.2.1 (UTC 2008-12-04)

Audio
ID : 1
Format : AC-3
Format/Info : Audio Coding 3
Mode extension : CM (complete main)
Format settings, Endianness : Big
Codec ID : 2000
Bit rate mode : Constant
Bit rate : 448 Kbps
Channel(s) : 6 channels
Channel positions : Front: L C R, Side: L R, LFE
Sampling rate : 48.0 KHz
Compression mode : Lossy
Stream size : 3.69 MiB (27%)
Alignment : Split accross interleaves
Interleave, duration : 42 ms (1.01 video frame)
Interleave, preload duration : 500 ms
Релиз без рекламы


picpicpicpicpic
Для увеличения картинки щелкните мышкой по превью

Этот торрент недоступен для скачивания без регистрации, однако доступен по публичной magnet-ссылке (источники с публичных трекеров). Перед использованием ссылки прочтите, пожалуйста Пользовательское соглашение, а также как можно дольше оставайтесь на раздаче! Для того, чтобы скачать сам торрент-файл (который видит больше источников), а также для того, чтобы поблагодарить релизера, вам необходимо зарегистрироваться. Если регистрироваться лень - вы можете также попробовать скачать релиз по нашим партнерским ссылкам ниже.

[underverse.su].t66899.torrent
Трекер: Зарегистрирован   [ 08.06.2016 10:28 ]  

Статус: проверено (by makkol at 08.06.2016 23:15)
Поблагодарили: пока никто не поблагодарил...
Тип торрента: публичный - доступные источники с открытых трекеров: 
Размер: 1,37 GB (занимает 0,31 DVDR, для записи нужно 1 болванка DVDR/RW)
 
 
Похожие темы
Форум Тема Автор Торрент Отв. Посл. сооб.
Зарубежное кино [DVDRip, Low-Res HDRip, и т.д.] Специальный полуночный выпуск / Midnight Special (Джефф Николс / Jeff Nichols) [2016 г., фантастика, триллер, драма, приключения, HDRip] MVO (Paradox & Omskbird records) 90ytr90
27 | 0

0 | 178

4

05.11.2016 09:06

Зарубежное кино [DVDRip, Low-Res HDRip, и т.д.] Специальный полуночный выпуск / Midnight Special (Джефф Николс / Jeff Nichols) [2016 г., фантастика, триллер, драма, приключения, BDRip-AVC] MVO (Paradox & Omskbird records) + Original (Eng) +... 90ytr90
50 | 3

0 | 159

4

05.11.2016 08:58

Зарубежное кино [DVDRip, Low-Res HDRip, и т.д.] Специальный полуночный выпуск / Midnight Special (Джефф Николс / Jeff Nichols) [2016 г., фантастика, триллер, драма, приключения, BDRip-AVC] MVO (Paradox & Omskbird records) + Sub (Rus) 90ytr90
214 | 6

0 | 578

11

24.10.2016 19:05

Зарубежное кино [DVDRip, Low-Res HDRip, и т.д.] Специальный полуночный выпуск / Midnight Special (Джефф Николс) [2016 г., фантастика, триллер, драма, приключения, WEBRip] VO makkol
50 | 0

0 | 798

35

26.04.2016 14:23

Зарубежное кино [DVDRip, Low-Res HDRip, и т.д.] Специальные корреспонденты / Special Correspondents (Рики Джервэйс) [2016 г., комедия, WEBRip] VO makkol
89 | 8

0 | 913

10

14.05.2016 10:54

T Зарубежное кино [DVDRip, Low-Res HDRip, и т.д.] Специальные корреспонденты / Special Correspondents (Рики Джервэйс / Ricky Gervais) [2016 г., комедия, WEB-DLRip] MVO 90ytr90
163 | 3

0 | 606

6

19.05.2016 06:48

[18+] Хентай Специальные палаты | Tokubetsu Byoutou, 1-2 of 2 (BISHOP, Bootleg, AMGA) [2007, хентай, DVDRip] Печаль'ka
0 | 0

0 | 636

49

13.08.2012 18:16

Информационно-аналитические передачи Специальный проект. С Михаилом Задорновым: Рюрик. Потерянная быль [2012 г., Документальный, SATRemux] Чертёнок
3 | 0

0 | 1027

22

23.07.2013 18:22

Другие фильмы Специальный проект-Мобильная смерть [2012 г., документальный, TVRip] матроскин
0 | 0

1 | 1352

22

02.11.2013 10:40

Другие фильмы Специальный репортаж. Украина за красной чертой. [2014 г., документальный, TVRip] матроскин
0 | 0

5 | 722

5

06.10.2014 19:32


Яндекс.Метрика powered by Sphinx


В Н И М А Н И Е
Сайт не распространяет и не хранит электронные версии произведений, а лишь бесплатно и без коммерческой выгоды (не требуя взамен платы,
SMS и т.д.) предоставляет доступ к создаваемому пользователями каталогу ссылок на торрент-файлы, которые содержат только списки хеш-сумм.
Убедительная просьба с жалобами обращаться напрямую к пользователю, разместившему торрент файл.

Вверх