Loading...
Error

Природная инженерия: выживание в саванне / Animal Impact: Savannah [2010 г., документальный, флора, фауна, HDTVRip] VO

Статистика раздачи
Размер:  599 MB   |    Зарегистрирован:  6 месяцев   |    Скачан:  3 раза

Полного источника не было: 5 дней

Сидов:  0  |  0 KB/s  ]   Личеров:  0  |  0 KB/s  ]

* - сиды/пиры с внешних источников

   
 
Автор Сообщение

ARI71 Пол:Муж

08-Июн-2016 09:38

Природная инженерия: выживание в саванне / Animal Impact: Savannah


Год выпуска: 2010
Жанр: документальный, флора, фауна
Страна: США National Geographic
Режиссер: Рон Боуман
Сюжет фильма:
Тайны механики движений животных саванны. Огромные скорости, богатырская сила и выносливость - всеми этими качествами зверей и птиц наделили хитроумные приспособления, разработанные природой в полном соответствии с законами физики.
Качество видео: HDTVRip

Продолжительность: 00:47:00
Формат: AVI
Видео: DivX 5, 720x400, ~1578 kbps
Аудио: русский, одноголосый закадровый (профессиональный), AC3 2.0, ~192.00 kbps

Код:

Общее
Полное имя : D:\Prirodnaja.ingenerija.2010.HDTVRip.[Один 777].avi
Формат : AVI
Формат/Информация : Audio Video Interleave
Размер файла : 599 Мбайт
Продолжительность : 47 м.
Общий поток : 1780 Кбит/сек
Программа кодирования : VirtualDubMod 1.5.10.3 | www.virtualdub-fr.org || (build 2550/release)
Библиотека кодирования : VirtualDubMod build 2550/release

Видео
Идентификатор : 0
Формат : MPEG-4 Visual
Профиль формата : Advanced Simple@L5
Параметр BVOP формата : 1
Параметр QPel формата : Нет
Параметр GMC формата : Без точки перехода
Параметр матрицы формата : Default (MPEG)
Идентификатор кодека : DX50
Идентификатор кодека/Подсказка : DivX 5
Продолжительность : 47 м.
Битрейт : 1578 Кбит/сек
Ширина : 720 пикселей
Высота : 400 пикселей
Соотношение сторон : 16:9
Частота кадров : 25,000 кадров/сек
Цветовое пространство : YUV
Субдискретизация насыщенности : 4:2:0
Битовая глубина : 8 бит
Тип развёртки : Прогрессивная
Метод сжатия : С потерями
Бит/(Пиксели*Кадры) : 0.219
Размер потока : 531 Мбайт (89%)
Библиотека кодирования : XviD 73

Аудио
Идентификатор : 1
Формат : AC-3
Формат/Информация : Audio Coding 3
Расширение режима : CM (complete main)
Параметр Endianness формата : Big
Идентификатор кодека : 2000
Продолжительность : 47 м.
Вид битрейта : Постоянный
Битрейт : 192 Кбит/сек
Каналы : 2 канала
Расположение каналов : Front: L R
Частота : 48,0 КГц
Частота кадров : 31,250 кадров/сек (1536 spf)
Метод сжатия : С потерями
Размер потока : 64,6 Мбайт (11%)
Выравнивание : Разделение по промежуткам
Продолжительность промежутка : 40 мс. (1,00 видеокадр)
Время предзагрузки промежутка : 500 мс.
picpicpicpicpic
Для увеличения картинки щелкните мышкой по превью

Этот торрент недоступен для скачивания без регистрации, однако доступен по публичной magnet-ссылке (источники с публичных трекеров). Перед использованием ссылки прочтите, пожалуйста Пользовательское соглашение, а также как можно дольше оставайтесь на раздаче! Для того, чтобы скачать сам торрент-файл (который видит больше источников), а также для того, чтобы поблагодарить релизера, вам необходимо зарегистрироваться. Если регистрироваться лень - вы можете также попробовать скачать релиз по нашим партнерским ссылкам ниже.

[underverse.su].t66897.torrent
Трекер: Зарегистрирован   [ 08.06.2016 09:38 ]  

Статус: проверено (by makkol at 08.06.2016 10:05)
Поблагодарили: пока никто не поблагодарил...
Тип торрента: публичный - доступные источники с открытых трекеров: 
Размер: 599 MB (занимает 0,13 DVDR, для записи нужно 1 болванка DVDR/RW)
 
 

Яндекс.Метрика powered by Sphinx


В Н И М А Н И Е
Сайт не распространяет и не хранит электронные версии произведений, а лишь бесплатно и без коммерческой выгоды (не требуя взамен платы,
SMS и т.д.) предоставляет доступ к создаваемому пользователями каталогу ссылок на торрент-файлы, которые содержат только списки хеш-сумм.
Убедительная просьба с жалобами обращаться напрямую к пользователю, разместившему торрент файл.

Вверх