Loading...
Error

Папашина армия / Dad's Army (Оливер Паркер) [2016 г., комедия, WEB-DLRip] MVO

Статистика раздачи
Размер:  1,37 GB   |    Зарегистрирован:  5 месяцев 25 дней   |    Скачан:  21 раз

Полного источника не было: 5 дней

Сидов:  0  |  0 KB/s  ]   Личеров:  0  |  0 KB/s  ]

* - сиды/пиры с внешних источников

   
 
Автор Сообщение

makkol Пол:Муж

07-Июн-2016 22:00

Папашина армия / Dad's Army
«Британская империя наносит ответный удар»

Год выпуска: 2016
Жанр: комедия
Производство: Великобритания [DJ Films]
Режиссер: Оливер Паркер
В ролях: Кэтрин Зета-Джонс, Билл Найи, Тоби Джонс, Майкл Гэмбон, Сара Ланкашир, Марк Гейтисс, Дэниэл Мейс, Элисон Стэдмен, Том Кортни, Блейк Харрисон
Сюжет фильма:
Англия. Вторая Мировая война. Журналистка для освещения военных действий отправляется в прибрежный город, где расположен взвод, охраняющий побережье.

  • Мировая премьера: 5 февраля 2016


Качество видео: WEB-DLRip

Продолжительность: 01:39:52
Формат: AVI
Видео: XviD, 720x304 (2.35:1), 23.976 fps, 1758 kbps
Аудио: русский, любительский многоголосый закадровый, AC3 2.0, 48 kHz, 192 kbps

Код:

Формат                                   : AVI
Формат/Информация                        : Audio Video Interleave
Размер файла                             : 1,37 Гбайт
Продолжительность                        : 1 ч. 39 м.
Общий поток                              : 1959 Кбит/сек
Программа кодирования                    : VirtualDubMod 1.5.10.2 (build 2540/release)
Библиотека кодирования                   : VirtualDubMod build 2540/release

Видео
Идентификатор                            : 0
Формат                                   : MPEG-4 Visual
Профиль формата                          : Advanced Simple@L5
Параметр BVOP формата                    : 2
Параметр QPel формата                    : Нет
Параметр GMC формата                     : Без точки перехода
Параметр матрицы формата                 : Выборочная
Идентификатор кодека                     : XVID
Идентификатор кодека/Подсказка           : XviD
Продолжительность                        : 1 ч. 39 м.
Битрейт                                  : 1758 Кбит/сек
Ширина                                   : 720 пикселей
Высота                                   : 304 пикселя
Соотношение сторон                       : 2,35:1
Частота кадров                           : 23,976 (24000/1001) кадра/сек
Цветовое пространство                    : YUV
Субдискретизация насыщенности            : 4:2:0
Битовая глубина                          : 8 бит
Тип развёртки                            : Прогрессивная
Метод сжатия                             : С потерями
Бит/(Пиксели*Кадры)                      : 0.335
Размер потока                            : 1,23 Гбайт (90%)
Библиотека кодирования                   : XviD 1.2.1 (UTC 2008-12-04)

Аудио
Идентификатор                            : 1
Формат                                   : AC-3
Формат/Информация                        : Audio Coding 3
Расширение режима                        : CM (complete main)
Параметр Endianness формата              : Big
Идентификатор кодека                     : 2000
Продолжительность                        : 1 ч. 39 м.
Вид битрейта                             : Постоянный
Битрейт                                  : 192 Кбит/сек
Каналы                                   : 2 канала
Расположение каналов                     : Front: L R
Частота                                  : 48,0 КГц
Частота кадров                           : 31,250 кадров/сек (1536 spf)
Метод сжатия                             : С потерями
Размер потока                            : 137 Мбайт (10%)
Выравнивание                             : Разделение по промежуткам
Продолжительность промежутка             : 42  мс. (1,00 видеокадр)
Время предзагрузки промежутка            : 500  мс.
Студия "Paradox"
Перевод: Анна Помигуева
Озвучивание: Варвара Чабан, Владимир Рыбальченко, Даниил Эльдаров, Александр Зачиняев
Звукорежиссер: Сергей Богомазов
Присутствует реклама


picpicpicpicpic
Для увеличения картинки щелкните мышкой по превью

Этот торрент недоступен для скачивания без регистрации, однако доступен по публичной magnet-ссылке (источники с публичных трекеров). Перед использованием ссылки прочтите, пожалуйста Пользовательское соглашение, а также как можно дольше оставайтесь на раздаче! Для того, чтобы скачать сам торрент-файл (который видит больше источников), а также для того, чтобы поблагодарить релизера, вам необходимо зарегистрироваться. Если регистрироваться лень - вы можете также попробовать скачать релиз по нашим партнерским ссылкам ниже.

[underverse.su].t66894.torrent
Трекер: Зарегистрирован   [ 07.06.2016 22:00 ]  

Статус: T временная (by Паукан at 08.06.2016 04:21)
Поблагодарили: 1 человек
Тип торрента: публичный - доступные источники с открытых трекеров: 
Размер: 1,37 GB (занимает 0,31 DVDR, для записи нужно 1 болванка DVDR/RW)
 
 
Похожие темы
Форум Тема Автор Торрент Отв. Посл. сооб.
Зарубежное кино [DVDRip, Low-Res HDRip, и т.д.] Папашина армия / Dad's Army (Оливер Паркер / Oliver Parker) [2016 г., комедия, HDRip] Dub 90ytr90
4 | 0

0 | 95

2

06.11.2016 09:14

Зарубежное кино [DVDRip, Low-Res HDRip, и т.д.] Папашина армия / Dad's Army (Оливер Паркер / Oliver Parker) [2016 г., комедия, BDRip-AVC] Dub + Original (Eng) + Sub (Rus, Eng) 90ytr90
33 | 1

0 | 146

1

06.11.2016 09:10

Зарубежное кино [DVDRip, Low-Res HDRip, и т.д.] Папашина армия / Dad's Army (Оливер Паркер / Oliver Parker) [2016 г., комедия, BDRip-AVC] Dub + Sub (Rus) 90ytr90
47 | 7

0 | 163

1

06.11.2016 09:05

Зарубежное кино [DVDRip, Low-Res HDRip, и т.д.] Папашина армия / Dad's Army (Оливер Паркер / Oliver Parker) [2016 г., комедия, BDRip] Dub + Original (Eng) 90ytr90
15 | 1

0 | 497

2

25.09.2016 16:49

Зарубежное кино [DVDRip, Low-Res HDRip, и т.д.] Папашина армия / Dad's Army (Оливер Паркер / Oliver Parker) [2016 г., комедия, BDRip-AVC] Dub + Original (Eng) + Sub (Eng) 90ytr90
19 | 1

0 | 558

5

25.09.2016 16:56

Зарубежное кино [DVDRip, Low-Res HDRip, и т.д.] Папашина армия / Dad's Army (Оливер Паркер / Oliver Parker) [2016 г., комедия, BDRip] Dub 90ytr90
705 | 8

0 | 478

7

25.09.2016 16:31

Зарубежное кино [HDDVDRip / BDRip / WEB-DL / HDTV 1080/720р] Папашина армия / Dad's Army (Оливер Паркер / Oliver Parker) [2016 г., комедия, BDRip 1080p] Dub + Original (Eng) + Sub (Eng) 90ytr90
10 | 0

0 | 468

0

25.09.2016 16:44

Зарубежное кино [HDDVDRip / BDRip / WEB-DL / HDTV 1080/720р] Папашина армия / Dad's Army (Оливер Паркер / Oliver Parker) [2016 г., комедия, BDRip 720p] Dub + Original (Eng) + Sub (Eng) 90ytr90
10 | 0

0 | 452

3

25.09.2016 16:38

T Зарубежное кино [HDDVDRip / BDRip / WEB-DL / HDTV 1080/720р] Папашина армия / Dad's Army (Оливер Паркер) [2016 г., комедия, WEB-DL 1080p] MVO makkol
1 | 0

0 | 560

11

07.06.2016 22:07

BIGBAN93 Пол:Муж

09-Июн-2016 14:41

ну как фильм? :Search:

Яндекс.Метрика powered by Sphinx


В Н И М А Н И Е
Сайт не распространяет и не хранит электронные версии произведений, а лишь бесплатно и без коммерческой выгоды (не требуя взамен платы,
SMS и т.д.) предоставляет доступ к создаваемому пользователями каталогу ссылок на торрент-файлы, которые содержат только списки хеш-сумм.
Убедительная просьба с жалобами обращаться напрямую к пользователю, разместившему торрент файл.

Вверх