Loading...
Error

Человечество из космоса / Mankind from Space [2015 г., документальный, история, социология, наука, HDTV 1080i] Dub

Статистика раздачи
Размер:  6,8 GB   |    Зарегистрирован:  6 месяцев   |    Скачан:  6 раз

Полного источника не было: 9 дней

Сидов:  0  |  0 KB/s  ]   Личеров:  0  |  0 KB/s  ]

* - сиды/пиры с внешних источников

   
 
Автор Сообщение

ARI71 Пол:Муж

07-Июн-2016 11:19

Человечество из космоса / Mankind from Space


Год выпуска: 2015
Жанр: документальный, история, социология, наука
Страна: Великобритания , Канада Handel Productions Inc., Darlow Smithson Productions Ltd., PBS
Перевод: русский, (дублированный)
Режиссер: Дункан Копп
Сюжет фильма:
Говорят, что человечество из космоса. Мы сейчас живем в поразительно сложном, взаимосвязанном мире. Он сформирован уникальными новшествами, введенными за тысячи лет. Изобретения помогли нам образовать запутанные паутины сетей, подарив успешную жизнь. Сейчас уже можно проследить незримые связи, соединяющие нас. Это история того, как наша изобретательность создала современный мир, и как нам с её помощью защитить своё будущее.
Качество видео: HDTV 1080i

Продолжительность: 01:27:59
Формат: MPEG-TS
Видео: AVC, 1920x1080 (16:9), 25,000 fps, Main@L4, ~9878 kbps, 0.191 bit/pixel
Аудио #1: русский 48,0 kHz, AС3, 6 ch, ~448.00 Кбит/с
Аудио #2: русский 48,0 kHz, MP2, 2 ch, ~192.00 Кбит/с

Код:

Общее
Идентификатор : 1 (0x1)
Полное имя : D:\Человечество из космоса.ts
Формат : MPEG-TS
Размер файла : 6,80 Гбайт
Продолжительность : 1 ч. 27 м.
Режим общего битрейта : Переменный
Общий поток : 11,1 Мбит/сек

Видео
Идентификатор : 1341 (0x53D)
Идентификатор меню : 13004 (0x32CC)
Формат : AVC
Формат/Информация : Advanced Video Codec
Профиль формата : Main@L4
Параметр CABAC формата : Да
Параметр ReFrames формата : 3 кадра
Идентификатор кодека : 27
Продолжительность : 1 ч. 27 м.
Битрейт : 9878 Кбит/сек
Ширина : 1920 пикселей
Высота : 1080 пикселей
Соотношение сторон : 16:9
Частота кадров : 25,000 кадров/сек
Стандарт вещания : Component
Цветовое пространство : YUV
Субдискретизация насыщенности : 4:2:0
Битовая глубина : 8 бит
Тип развёртки : Чересстрочная
Метод сохранения типа развёртки : Раздельные поля
Порядок развёртки : Верхнее поле первое
Бит/(Пиксели*Кадры) : 0.191
Размер потока : 6,07 Гбайт (89%)
Цветовой диапазон : Limited
Основные цвета : BT.709
Характеристики трансфера : BT.709
Коэффициенты матрицы : BT.709

Аудио #1
Идентификатор : 1342 (0x53E)
Идентификатор меню : 13004 (0x32CC)
Формат : AC-3
Формат/Информация : Audio Coding 3
Расширение режима : CM (complete main)
Параметр Endianness формата : Big
Идентификатор кодека : 6
Продолжительность : 1 ч. 27 м.
Вид битрейта : Постоянный
Битрейт : 448 Кбит/сек
Каналы : 6 каналов
Расположение каналов : Front: L C R, Side: L R, LFE
Частота : 48,0 КГц
Частота кадров : 31,250 кадров/сек (1536 spf)
Метод сжатия : С потерями
Задержка видео : -120 мс.
Размер потока : 282 Мбайт (4%)
Язык : Russian

Аудио #2
Идентификатор : 1343 (0x53F)
Идентификатор меню : 13004 (0x32CC)
Формат : MPEG Audio
Версия формата : Version 1
Профиль формата : Layer 2
Идентификатор кодека : 3
Продолжительность : 1 ч. 27 м.
Вид битрейта : Постоянный
Битрейт : 192 Кбит/сек
Каналы : 2 канала
Частота : 48,0 КГц
Метод сжатия : С потерями
Задержка видео : -120 мс.
Размер потока : 121 Мбайт (2%)
Язык : Russian
picpicpicpicpic
Для увеличения картинки щелкните мышкой по превью

Этот торрент недоступен для скачивания без регистрации, однако доступен по публичной magnet-ссылке (источники с публичных трекеров). Перед использованием ссылки прочтите, пожалуйста Пользовательское соглашение, а также как можно дольше оставайтесь на раздаче! Для того, чтобы скачать сам торрент-файл (который видит больше источников), а также для того, чтобы поблагодарить релизера, вам необходимо зарегистрироваться. Если регистрироваться лень - вы можете также попробовать скачать релиз по нашим партнерским ссылкам ниже.

[underverse.su].t66884.torrent
Трекер: Зарегистрирован   [ 07.06.2016 11:19 ]  

Статус: проверено (by makkol at 07.06.2016 11:42)
Поблагодарили: пока никто не поблагодарил...
Тип торрента: публичный - доступные источники с открытых трекеров: 
Размер: 6,8 GB (занимает 1,55 DVDR, для записи нужно 2 болванки DVDR/RW)
 
 

Яндекс.Метрика powered by Sphinx


В Н И М А Н И Е
Сайт не распространяет и не хранит электронные версии произведений, а лишь бесплатно и без коммерческой выгоды (не требуя взамен платы,
SMS и т.д.) предоставляет доступ к создаваемому пользователями каталогу ссылок на торрент-файлы, которые содержат только списки хеш-сумм.
Убедительная просьба с жалобами обращаться напрямую к пользователю, разместившему торрент файл.

Вверх