Loading...
Error

Обнажённая кобыла / Una cavalla tutta nuda (Франко Россетти) [1972 г., комедия, WEBRip] VO

Статистика раздачи
Размер:  743 MB   |    Зарегистрирован:  5 месяцев 26 дней   |    Скачан:  18 раз

Полного источника не было: 12 дней

Сидов:  0  |  0 KB/s  ]   Личеров:  0  |  0 KB/s  ]

* - сиды/пиры с внешних источников

   
 
Автор Сообщение

makkol Пол:Муж

06-Июн-2016 13:09

Обнажённая кобыла / Una cavalla tutta nuda


Год выпуска: 1972
Жанр: комедия
Производство: Италия [Hubris Films, Ministero del Turismo e dello Spettacolo]
Режиссер: Франко Россетти
В ролях: Дон Бэки, Барбара Буше, Ренцо Монтаньяни, Витторио, Леопольдо Триесте, Рита Ди Лерниа, Карла Романелли, Гиго Масино, Эдда Ферронао, Ренато Кортезе
Сюжет фильма:
Жители страдающей от засухи деревни решают отправить послов к епископу Вольтерра с просьбой поспособствовать в строительстве оросительного канала. Посланниками становятся Гульфардо де Барди и его приятель, авантюрист и проходимец Фолькаккьо, недавно вернувшийся с войны. Фолькаккьо становится неиссякающим источником проблем, из которых сам же постоянно находит оригинальный выход. Для начала он обещает научить наивного крестьянина, встретившегося посланцам в пути, превращать его жену в лошадь и обратно...

  • Мировая премьера: 3 февраля 1972


Качество видео: WEBRip

Продолжительность: 01:45:14
Формат: AVI
Видео: XviD, 640x480 (4:3), 25.000 fps, 850 kbps
Аудио: русский, любительский одноголосый закадровый, MP3 2.0, 44.1 kHz, 128 kbps

Код:

Format : AVI
Format/Info : Audio Video Interleave
File size : 743 MiB
Duration : 1h 45mn
Overall bit rate : 988 Kbps
Writing application : VirtualDubMod 1.5.10.2 (build 2540/release)
Writing library : VirtualDubMod build 2540/release

Video
ID : 0
Format : MPEG-4 Visual
Format profile : Advanced Simple@L5
Format settings, BVOP : 1
Format settings, QPel : No
Format settings, GMC : No warppoints
Format settings, Matrix : Custom
Codec ID : XVID
Codec ID/Hint : XviD
Duration : 1h 45mn
Bit rate : 850 Kbps
Width : 640 pixels
Height : 480 pixels
Display aspect ratio : 4:3
Frame rate : 25.000 fps
Color space : YUV
Chroma subsampling : 4:2:0
Bit depth : 8 bits
Scan type : Progressive
Compression mode : Lossy
Bits/(Pixel*Frame) : 0.111
Stream size : 640 MiB (86%)
Writing library : XviD 73

Audio
ID : 1
Format : MPEG Audio
Format version : Version 1
Format profile : Layer 3
Mode : Joint stereo
Mode extension : MS Stereo
Codec ID : 55
Codec ID/Hint : MP3
Duration : 1h 45mn
Bit rate mode : Constant
Bit rate : 128 Kbps
Channel(s) : 2 channels
Sampling rate : 44.1 KHz
Compression mode : Lossy
Stream size : 96.3 MiB (13%)
Alignment : Split accross interleaves
Interleave, duration : 40 ms (1.00 video frame)
Interleave, preload duratio : 500 ms
Перевод: Антон Каптелов
Озвучивание: Cmert
picpicpicpicpic
Для увеличения картинки щелкните мышкой по превью

Этот торрент недоступен для скачивания без регистрации, однако доступен по публичной magnet-ссылке (источники с публичных трекеров). Перед использованием ссылки прочтите, пожалуйста Пользовательское соглашение, а также как можно дольше оставайтесь на раздаче! Для того, чтобы скачать сам торрент-файл (который видит больше источников), а также для того, чтобы поблагодарить релизера, вам необходимо зарегистрироваться. Если регистрироваться лень - вы можете также попробовать скачать релиз по нашим партнерским ссылкам ниже.

[underverse.su].t66872.torrent
Трекер: Зарегистрирован   [ 06.06.2016 13:09 ]  

Статус: проверено (by makkol at 08.06.2016 23:06)
Поблагодарили: 1 человек
Тип торрента: публичный - доступные источники с открытых трекеров: 
Размер: 743 MB (занимает 0,17 DVDR, для записи нужно 1 болванка DVDR/RW)
 
 

Яндекс.Метрика powered by Sphinx


В Н И М А Н И Е
Сайт не распространяет и не хранит электронные версии произведений, а лишь бесплатно и без коммерческой выгоды (не требуя взамен платы,
SMS и т.д.) предоставляет доступ к создаваемому пользователями каталогу ссылок на торрент-файлы, которые содержат только списки хеш-сумм.
Убедительная просьба с жалобами обращаться напрямую к пользователю, разместившему торрент файл.

Вверх