Loading...
Error

Все, что у меня есть / Право на наследие / Freeheld (Питер Соллетт) [2015 г., драма, мелодрама, биография, HDRip] Dub (iTunes)

Статистика раздачи
Размер:  1,37 GB   |    Зарегистрирован:  6 месяцев   |    Скачан:  6 раз

Полного источника не было: 17 часов

Сидов:  0  |  0 KB/s  ]   Личеров:  0  |  0 KB/s  ]

* - сиды/пиры с внешних источников

   
 
Автор Сообщение

makkol Пол:Муж

05-Июн-2016 22:08

Все, что у меня есть / Право на наследие / Freeheld


Год выпуска: 2015
Жанр: драма, мелодрама, биография
Производство: США [Double Feature Films, Endgame Entertainment]
Режиссер: Питер Соллетт
В ролях: Джулианна Мур, Эллен Пейдж, Майкл Шеннон, Стив Карелл, Джош Чарльз, Люк Граймс, Дэннис Буцикарис, Мэри Бердсонг, Том МакГоуэн, Гэбриел Луна
Сюжет фильма:
Сюжет картины расскажет реальную историю девушки по имени Стейси Эндри, работающей автомобильным механиком в Нью-Джерси, и ее подруги — полицейского детектива Лорел Хестер. Обе героини пытаются найти способ передать по наследованию полицейские льготы Хестер после того как выясняется, что она больна смертельным заболеванием…

  • Мировая премьера: 13 сентября 2015
  • Российская премьера: 5 мая 2016


Качество видео: HDRip

Продолжительность: 01:43:20
Формат: AVI
Видео: XviD, 720x384 (1.85:1), 23.976 fps, 1501 kbps
Аудио: русский, дублированный (iTunes), AC3 5.1, 48 kHz, 384 kbps

Код:

Формат : AVI
Формат/Информация : Audio Video Interleave
Размер файла : 1,37 Гбайт
Продолжительность : 1 ч. 43 м.
Общий поток : 1894 Кбит/сек
Название фильма : Freeheld.2015.D.HDRip.[*другой трекер*]
Программа кодирования : VirtualDubMod 1.5.10.2 (build 2540/release)

Видео
Идентификатор : 0
Формат : MPEG-4 Visual
Профиль формата : Advanced Simple@L5
Параметр BVOP формата : 2
Параметр QPel формата : Нет
Параметр GMC формата : Без точки перехода
Параметр матрицы формата : Default (MPEG)
Идентификатор кодека : XVID
Идентификатор кодека/Подсказка : XviD
Продолжительность : 1 ч. 43 м.
Битрейт : 1501 Кбит/сек
Ширина : 720 пикселей
Высота : 384 пикселя
Соотношение сторон : 1,85:1
Частота кадров : 23,976 (24000/1001) кадра/сек
Цветовое пространство : YUV
Субдискретизация насыщенности : 4:2:0
Битовая глубина : 8 бит
Тип развёртки : Прогрессивная
Метод сжатия : С потерями
Бит/(Пиксели*Кадры) : 0.226
Размер потока : 1,08 Гбайт (79%)
Библиотека кодирования : XviD 1.2.1 (UTC 2008-12-04)

Аудио
Идентификатор : 1
Формат : AC-3
Формат/Информация : Audio Coding 3
Расширение режима : CM (complete main)
Параметр Endianness формата : Big
Идентификатор кодека : 2000
Продолжительность : 1 ч. 43 м.
Вид битрейта : Постоянный
Битрейт : 384 Кбит/сек
Каналы : 6 каналов
Расположение каналов : Front: L C R, Side: L R, LFE
Частота : 48,0 КГц
Частота кадров : 31,250 кадров/сек (1536 spf)
Метод сжатия : С потерями
Размер потока : 284 Мбайт (20%)
Выравнивание : Разделение по промежуткам
Продолжительность промежутка : 42 мс. (1,00 видеокадр)
Время предзагрузки промежутка : 500 мс.
picpicpicpicpic
Для увеличения картинки щелкните мышкой по превью

Этот торрент недоступен для скачивания без регистрации, однако доступен по публичной magnet-ссылке (источники с публичных трекеров). Перед использованием ссылки прочтите, пожалуйста Пользовательское соглашение, а также как можно дольше оставайтесь на раздаче! Для того, чтобы скачать сам торрент-файл (который видит больше источников), а также для того, чтобы поблагодарить релизера, вам необходимо зарегистрироваться. Если регистрироваться лень - вы можете также попробовать скачать релиз по нашим партнерским ссылкам ниже.

[underverse.su].t66857.torrent
Трекер: Зарегистрирован   [ 05.06.2016 22:08 ]  

Статус: T временная (by makkol at 08.06.2016 22:57)
Поблагодарили: пока никто не поблагодарил...
Тип торрента: публичный - доступные источники с открытых трекеров: 
Размер: 1,37 GB (занимает 0,31 DVDR, для записи нужно 1 болванка DVDR/RW)
 
 
Похожие темы
Форум Тема Автор Торрент Отв. Посл. сооб.
T Зарубежное кино [HDDVDRip / BDRip / WEB-DL / HDTV 1080/720р] Все, что у меня есть / Право на наследие / Freeheld (Питер Соллетт) [2015 г., драма, мелодрама, биография, BDRip 720p] Dub (iTunes) + Original + Subs makkol
9 | 1

0 | 639

2

05.06.2016 22:19

T Зарубежное кино [HDDVDRip / BDRip / WEB-DL / HDTV 1080/720р] Все, что у меня есть / Право на наследие / Freeheld (Питер Соллетт) [2015 г., драма, мелодрама, биография, BDRip 1080p] Dub (iTunes) + Original makkol
0 | 0

0 | 697

4

05.06.2016 22:26


Яндекс.Метрика powered by Sphinx


В Н И М А Н И Е
Сайт не распространяет и не хранит электронные версии произведений, а лишь бесплатно и без коммерческой выгоды (не требуя взамен платы,
SMS и т.д.) предоставляет доступ к создаваемому пользователями каталогу ссылок на торрент-файлы, которые содержат только списки хеш-сумм.
Убедительная просьба с жалобами обращаться напрямую к пользователю, разместившему торрент файл.

Вверх