Loading...
Error

Ускорение / Boost (Натан Габаев) [2016 г., боевик, драма, криминал, HDRip] MVO

Статистика раздачи
Размер:  1,37 GB   |    Зарегистрирован:  6 месяцев   |    Скачан:  9 раз

Полного источника не было: 1 месяц 28 дней

Сидов:  0  |  0 KB/s  ]   Личеров:  0  |  0 KB/s  ]

* - сиды/пиры с внешних источников

   
 
Автор Сообщение

makkol Пол:Муж

05-Июн-2016 11:38

Ускорение / Boost


Год выпуска: 2016
Жанр: боевик, драма, криминал
Производство: США [GF Pictures]
Режиссер: Натан Габаев
В ролях: Дэнни Трехо, Денай Гарсиа, Трент Гарретт, Роб Нэгл, Джастин Дрей, Эрин Салливан
Сюжет фильма:
Простой мужчина вел размеренный образ жизни, работая на скучнейшей работе, обитая в простом и уютном доме и разъезжая по городу на старой машине. В один прекрасный день мужчина открыл багажник своего авто и увидел запакованную человеческую почку. Этот орган можно продать на черном рынке за огромные деньги, в которых мужчина отчаянно нуждался. Но герой не подумал, что неизвестные преступники просто ошиблись машиной, и когда до них дойдет осознание своей оплошности, то они сделают все, что возвратить свой товар. Теперь мужчине нужно спасать собственную жизнь, а также помочь девушке, которую хотят уничтожить.

  • Мировая премьера: 5 апреля 2016


Качество видео: HDRip

Продолжительность: 01:34:50
Формат: AVI
Видео: XviD, 720x320 (2.25:1), 23.976 fps, 1601 kbps
Аудио: русский, профессиональный многоголосый закадровый, AC3 5.1, 48 kHz, 448 kbps

Код:

Формат                                   : AVI
Формат/Информация                        : Audio Video Interleave
Размер файла                             : 1,36 Гбайт
Продолжительность                        : 1 ч. 34 м.
Общий поток                              : 2059 Кбит/сек
Программа кодирования                    : VirtualDubMod 1.5.10.2 (build 2542/release)
Библиотека кодирования                   : VirtualDubMod build 2542/release

Видео
Идентификатор                            : 0
Формат                                   : MPEG-4 Visual
Профиль формата                          : Advanced Simple@L5
Параметр BVOP формата                    : 2
Параметр QPel формата                    : Нет
Параметр GMC формата                     : Без точки перехода
Параметр матрицы формата                 : Выборочная
Идентификатор кодека                     : XVID
Идентификатор кодека/Подсказка           : XviD
Продолжительность                        : 1 ч. 34 м.
Битрейт                                  : 1601 Кбит/сек
Ширина                                   : 720 пикселей
Высота                                   : 320 пикселей
Соотношение сторон                       : 2,25:1
Частота кадров                           : 23,976 кадра/сек
Цветовое пространство                    : YUV
Субдискретизация насыщенности            : 4:2:0
Битовая глубина                          : 8 бит
Тип развёртки                            : Прогрессивная
Метод сжатия                             : С потерями
Бит/(Пиксели*Кадры)                      : 0.290
Размер потока                            : 1,06 Гбайт (78%)
Библиотека кодирования                   : XviD 1.2.1 (UTC 2008-12-04)

Аудио
Идентификатор                            : 1
Формат                                   : AC-3
Формат/Информация                        : Audio Coding 3
Расширение режима                        : CM (complete main)
Параметр Endianness формата              : Big
Идентификатор кодека                     : 2000
Продолжительность                        : 1 ч. 34 м.
Вид битрейта                             : Постоянный
Битрейт                                  : 448 Кбит/сек
Каналы                                   : 6 каналов
Расположение каналов                     : Front: L C R, Side: L R, LFE
Частота                                  : 48,0 КГц
Битовая глубина                          : 16 бит
Метод сжатия                             : С потерями
Задержка видео                           : 4 мс.
Размер потока                            : 303 Мбайт (22%)
Выравнивание                             : Разделение по промежуткам
Продолжительность промежутка             : 42  мс. (1,00 видеокадр)
Время предзагрузки промежутка            : 500  мс.
Paradox @ Omskbird
Перевод: Татьяна Масаковская
Озвучивание: Павел Ярощик, Денис Строев, Сергей Науменко, Анастасия Флигина
Присутствует реклама


picpicpicpicpic
Для увеличения картинки щелкните мышкой по превью

Этот торрент недоступен для скачивания без регистрации, однако доступен по публичной magnet-ссылке (источники с публичных трекеров). Перед использованием ссылки прочтите, пожалуйста Пользовательское соглашение, а также как можно дольше оставайтесь на раздаче! Для того, чтобы скачать сам торрент-файл (который видит больше источников), а также для того, чтобы поблагодарить релизера, вам необходимо зарегистрироваться. Если регистрироваться лень - вы можете также попробовать скачать релиз по нашим партнерским ссылкам ниже.

[underverse.su].t66844.torrent
Трекер: Зарегистрирован   [ 05.06.2016 11:38 ]  

Статус: проверено (by makkol at 08.06.2016 22:55)
Поблагодарили: пока никто не поблагодарил...
Тип торрента: публичный - доступные источники с открытых трекеров: 
Размер: 1,37 GB (занимает 0,31 DVDR, для записи нужно 1 болванка DVDR/RW)
 
 
Похожие темы
Форум Тема Автор Торрент Отв. Посл. сооб.
Зарубежное кино [DVDRip, Low-Res HDRip, и т.д.] Ускорение / Momentum (Стивен С. Кампанелли) [2015 г., боевик, триллер, HDRip] Dub makkol
10 | 0

0 | 559

58

12.12.2015 22:29

Зарубежное кино [DVDRip, Low-Res HDRip, и т.д.] Ускорение / Momentum (Стивен С. Кампанелли / Stephen S. Campanelli) [2015 г., боевик, триллер, BDRip-AVC] Dub + Sub (Eng) 90ytr90
22 | 0

0 | 380

13

22.01.2016 19:58

Зарубежное кино [DVDRip, Low-Res HDRip, и т.д.] Ускорение / Momentum (Стивен С. Кампанелли / Stephen S. Campanelli) [2015 г., боевик, триллер, BDRip-AVC] Dub + Original (Eng) + Sub (Eng) 90ytr90
11 | 1

0 | 406

16

22.01.2016 20:06

Зарубежное кино [HDDVDRip / BDRip / WEB-DL / HDTV 1080/720р] Ускорение / Momentum (Стивен С. Кампанелли) [2015 г., боевик, триллер, BDRip 1080p] Dub + Original makkol
4 | 3

0 | 639

23

12.12.2015 22:45

Зарубежное кино [HDDVDRip / BDRip / WEB-DL / HDTV 1080/720р] Ускорение / Momentum (Стивен С. Кампанелли / Stephen S. Campanelli) [2015 г., боевик, триллер, BDRip 720p] Dub + Original (Eng) + Sub (Eng) 90ytr90
20 | 1

0 | 307

4

22.01.2016 20:12

Зарубежное кино [HDDVDRip / BDRip / WEB-DL / HDTV 1080/720р] Ускорение / Momentum (Стивен С. Кампанелли / Stephen S. Campanelli) [2015 г., боевик, триллер, BDRip 1080p] Dub + Original (Eng) + Sub (Eng) 90ytr90
21 | 2

1 | 439

17

27.01.2016 21:05

Зарубежное кино [HDDVDRip / BDRip / WEB-DL / HDTV 1080/720р] Ускорение / Boost (Натан Габаев) [2016 г., боевик, драма, криминал, BDRip 1080p] MVO + Original makkol
0 | 0

0 | 725

4

05.06.2016 11:45


Яндекс.Метрика powered by Sphinx


В Н И М А Н И Е
Сайт не распространяет и не хранит электронные версии произведений, а лишь бесплатно и без коммерческой выгоды (не требуя взамен платы,
SMS и т.д.) предоставляет доступ к создаваемому пользователями каталогу ссылок на торрент-файлы, которые содержат только списки хеш-сумм.
Убедительная просьба с жалобами обращаться напрямую к пользователю, разместившему торрент файл.

Вверх