Loading...
Error

Познать неизведанное / Approaching the Unknown (Марк Элайджа Розенберг) [2016 г., фантастика, триллер, драма, WEB-DLRip] MVO

Статистика раздачи
Размер:  1,39 GB   |    Зарегистрирован:  5 месяцев 26 дней   |    Скачан:  7 раз

Полного источника не было: 2 дня 13 часов

Сидов:  0  |  0 KB/s  ]   Личеров:  0  |  0 KB/s  ]

* - сиды/пиры с внешних источников

   
 
Автор Сообщение

makkol Пол:Муж

05-Июн-2016 11:07

Познать неизведанное / Approaching the Unknown


Год выпуска: 2016
Жанр: фантастика, триллер, драма
Производство: США [3311 Productions, Loveless, Rooftop Films, TideRock Media]
Режиссер: Марк Элайджа Розенберг
В ролях: Марк Стронг, Санаа Лэтэн, Чарльз Бэйкер, Луиза Янофски, Лорен Рейто, Лора Ли Экобелли, Томас Ухлиарик, Джо Джеймс, Скотт Дэнни
Сюжет фильма:
Космическая фантастика об одиночной миссии астронавта-первопроходца на Марс. Многодневный полет плачевно сказывается на состоянии корабля и самого героя, чья мечта, жизнь и рассудок находятся под угрозой. Пора сделать выбор – вернуться ни с чем или продолжить путь к неизведанному?

  • Мировая премьера: 3 июня 2016


Качество видео: WEB-DLRip

Продолжительность: 01:30:12
Формат: AVI
Видео: XviD, 720x400 (16:9), 23.976 fps, 1640 kbps
Аудио #1: русский, любительский многоголосый закадровый (ColdFilm), AC3 2.0, 48 kHz, 192 kbps
Аудио #2: английский, оригинал, AC3 5.1, 48 kHz, 384 kbps

Код:

Format : AVI
Format/Info : Audio Video Interleave
File size : 1.39 GiB
Duration : 1h 30mn
Overall bit rate : 2 207 Kbps
Writing application : VirtualDubMod 1.5.10.2 (build 2540/release)
Writing library : VirtualDubMod build 2540/release

Video
ID : 0
Format : MPEG-4 Visual
Format profile : Advanced Simple@L5
Format settings, BVOP : 1
Format settings, QPel : No
Format settings, GMC : No warppoints
Format settings, Matrix : Custom
Codec ID : XVID
Codec ID/Hint : XviD
Duration : 1h 30mn
Bit rate : 1 641 Kbps
Width : 720 pixels
Height : 400 pixels
Display aspect ratio : 16:9
Frame rate : 23.976 fps
Original frame rate : 25.000 fps
Color space : YUV
Chroma subsampling : 4:2:0
Bit depth : 8 bits
Scan type : Progressive
Compression mode : Lossy
Bits/(Pixel*Frame) : 0.238
Stream size : 1.04 GiB (74%)
Writing library : XviD 65

Audio #1
ID : 1
Format : AC-3
Format/Info : Audio Coding 3
Mode extension : CM (complete main)
Format settings, Endianness : Big
Codec ID : 2000
Duration : 1h 26mn
Bit rate mode : Constant
Bit rate : 192 Kbps
Channel(s) : 2 channels
Channel positions : Front: L R
Sampling rate : 48.0 KHz
Frame rate : 31.250 fps (1536 spf)
Compression mode : Lossy
Stream size : 119 MiB (8%)
Alignment : Split accross interleaves
Interleave, duration : 43 ms (1.04 video frame)
Interleave, preload duratio : 500 ms

Audio #2
ID : 2
Format : AC-3
Format/Info : Audio Coding 3
Mode extension : CM (complete main)
Format settings, Endianness : Big
Codec ID : 2000
Duration : 1h 26mn
Bit rate mode : Constant
Bit rate : 384 Kbps
Channel(s) : 6 channels
Channel positions : Front: L C R, Side: L R, LFE
Sampling rate : 48.0 KHz
Frame rate : 31.250 fps (1536 spf)
Compression mode : Lossy
Stream size : 238 MiB (17%)
Alignment : Split accross interleaves
Interleave, duration : 43 ms (1.04 video frame)
Interleave, preload duratio : 500 ms
Релиз:
Релиз без рекламы


picpicpicpicpic
Для увеличения картинки щелкните мышкой по превью

Этот торрент недоступен для скачивания без регистрации, однако доступен по публичной magnet-ссылке (источники с публичных трекеров). Перед использованием ссылки прочтите, пожалуйста Пользовательское соглашение, а также как можно дольше оставайтесь на раздаче! Для того, чтобы скачать сам торрент-файл (который видит больше источников), а также для того, чтобы поблагодарить релизера, вам необходимо зарегистрироваться. Если регистрироваться лень - вы можете также попробовать скачать релиз по нашим партнерским ссылкам ниже.

[underverse.su].t66841.torrent
Трекер: Зарегистрирован   [ 07.06.2016 13:17 ]  

Статус: проверено (by makkol at 08.06.2016 22:53)
Поблагодарили: 1 человек
Тип торрента: публичный - доступные источники с открытых трекеров: 
Размер: 1,39 GB (занимает 0,32 DVDR, для записи нужно 1 болванка DVDR/RW)
 
 
Похожие темы
Форум Тема Автор Торрент Отв. Посл. сооб.
Зарубежное кино [HDDVDRip / BDRip / WEB-DL / HDTV 1080/720р] Познать неизведанное / Approaching the Unknown (Марк Элайджа Розенберг) [2016 г., фантастика, триллер, драма, WEB-DL 1080p] MVO + Original makkol
135 | 4

1 | 1041

15

07.06.2016 13:11

Зарубежное кино [HDDVDRip / BDRip / WEB-DL / HDTV 1080/720р] Познать неизведанное / Approaching the Unknown (Марк Элайджа Розенберг) [2016 г., фантастика, триллер, драма, WEB-DL 720p] MVO makkol
0 | 0

0 | 689

8

05.06.2016 11:22

makkol Пол:Муж

07-Июн-2016 13:18

7.06 в 16:20 - замена на рип без рекламы

Яндекс.Метрика powered by Sphinx


В Н И М А Н И Е
Сайт не распространяет и не хранит электронные версии произведений, а лишь бесплатно и без коммерческой выгоды (не требуя взамен платы,
SMS и т.д.) предоставляет доступ к создаваемому пользователями каталогу ссылок на торрент-файлы, которые содержат только списки хеш-сумм.
Убедительная просьба с жалобами обращаться напрямую к пользователю, разместившему торрент файл.

Вверх