Loading...
Error

Насильно мил не будешь / Hard Sell (Шон Налабофф) [2016 г., драма, комедия, HDRip] DVO

Статистика раздачи
Размер:  1,36 GB   |    Зарегистрирован:  6 месяцев   |    Скачан:  12 раз
Сидов:  2  |  0 KB/s  ]   Личеров:  0  |  0 KB/s  ]

* - сиды/пиры с внешних источников

   
 
Автор Сообщение

makkol Пол:Муж

04-Июн-2016 12:42

Насильно мил не будешь / Hard Sell


Год выпуска: 2016
Жанр: драма, комедия
Производство: США [Yellow Cote Productions]
Режиссер: Шон Налабофф
В ролях: Кристин Ченоуэт, Катрина Боуден, Спенсер Лист, Скайлер Джизондо, Бэйли Ноубл, Ханна Маркс, Эми Рутберг, Кевин Килнер, Дженна Ли Грин, Майкл Кострофф
Сюжет фильма:
Ученик старших классов изо всех сил старается помочь своей маме и их больной собаке, пока в его жизни не появляется красивая незнакомка.

  • Мировая премьера: 20 мая 2016


Качество видео: HDRip

Продолжительность: 01:36:58
Формат: AVI
Видео: FMP4, 720x304 (2.35:1), 23.976 fps, 1741 kbps
Аудио: русский, любительский двухголосый закадровый (RecentFilms), MP3 2.0, 48 kHz, 256 kbps

Код:

Формат : AVI
Формат/Информация : Audio Video Interleave
Профиль формата : OpenDML
Размер файла : 1,36 Гбайт
Продолжительность : 1 ч. 36 м.
Общий поток : 2012 Кбит/сек
Программа кодирования : Lavf56.36.100

Видео
Идентификатор : 0
Формат : MPEG-4 Visual
Профиль формата : Advanced Simple@L1
Параметр BVOP формата : Нет
Параметр QPel формата : Нет
Параметр GMC формата : Без точки перехода
Параметр матрицы формата : Default (H.263)
Идентификатор кодека : FMP4
Продолжительность : 1 ч. 36 м.
Битрейт : 1741 Кбит/сек
Ширина : 720 пикселей
Высота : 304 пикселя
Соотношение сторон : 2,35:1
Частота кадров : 23,976 кадра/сек
Цветовое пространство : YUV
Субдискретизация насыщенности : 4:2:0
Битовая глубина : 8 бит
Тип развёртки : Прогрессивная
Метод сжатия : С потерями
Бит/(Пиксели*Кадры) : 0.332
Размер потока : 1,18 Гбайт (87%)
Библиотека кодирования : Lavc56.41.100

Аудио
Идентификатор : 1
Формат : MPEG Audio
Версия формата : Version 1
Профиль формата : Layer 3
Режим : Joint stereo
Расширение режима : MS Stereo
Идентификатор кодека : 55
Идентификатор кодека/Подсказка : MP3
Продолжительность : 1 ч. 36 м.
Вид битрейта : Постоянный
Битрейт : 256 Кбит/сек
Каналы : 2 канала
Частота : 48,0 КГц
Метод сжатия : С потерями
Размер потока : 178 Мбайт (13%)
Выравнивание : Соединение по промежуткам
Продолжительность промежутка : 24 мс. (0,58 видеокадр)
Присутствует реклама


picpicpicpic
Для увеличения картинки щелкните мышкой по превью

Этот торрент недоступен для скачивания без регистрации, однако доступен по публичной magnet-ссылке (источники с публичных трекеров). Перед использованием ссылки прочтите, пожалуйста Пользовательское соглашение, а также как можно дольше оставайтесь на раздаче! Для того, чтобы скачать сам торрент-файл (который видит больше источников), а также для того, чтобы поблагодарить релизера, вам необходимо зарегистрироваться. Если регистрироваться лень - вы можете также попробовать скачать релиз по нашим партнерским ссылкам ниже.

[underverse.su].t66830.torrent
Трекер: Зарегистрирован   [ 04.06.2016 12:42 ]  

Статус: # сомнительно (by makkol at 04.06.2016 15:42)
Поблагодарили: 1 человек
Тип торрента: публичный - доступные источники с открытых трекеров: 
Размер: 1,36 GB (занимает 0,31 DVDR, для записи нужно 1 болванка DVDR/RW)
 
 

Яндекс.Метрика powered by Sphinx


В Н И М А Н И Е
Сайт не распространяет и не хранит электронные версии произведений, а лишь бесплатно и без коммерческой выгоды (не требуя взамен платы,
SMS и т.д.) предоставляет доступ к создаваемому пользователями каталогу ссылок на торрент-файлы, которые содержат только списки хеш-сумм.
Убедительная просьба с жалобами обращаться напрямую к пользователю, разместившему торрент файл.

Вверх