Loading...
Error

Соседи. На тропе войны 2 / Neighbors 2: Sorority Rising (Николас Столлер) [2016 г., комедия, WEBRip] MVO

Статистика раздачи
Размер:  1,37 GB   |    Зарегистрирован:  5 месяцев   |    Скачан:  37 раз

Полного источника не было: 34 минуты

Сидов:  0  |  0 KB/s  ]   Личеров:  0  |  0 KB/s  ]

* - сиды/пиры с внешних источников

   
 
Автор Сообщение

makkol Пол:Муж

03-Июн-2016 21:59

Соседи. На тропе войны 2
Neighbors 2: Sorority Rising
«Новые соседи»

Год выпуска: 2016
Жанр: комедия
Производство: США [Good Universe, Point Grey Pictures]
Режиссер: Николас Столлер
В ролях: Сет Роген, Зак Эфрон, Роуз Бирн, Хлоя Грейс Морец, Айк Баринхолц, Кирси Клемонс, Дэйв Франко, Джеррод Кармайкл, Кристофер Минц-Плассе, Бини Фелдштейн
Сюжет фильма:
На этот раз в дом по соседству с Маком и Келли въезжает университетский женский клуб. Чтобы разобраться с новыми соседями, которые не дают им покоя, Мак и Келли решают обратиться за помощью к их бывшему врагу — Тедди Сандерсу.

  • Мировая премьера: 4 мая 2016
  • Российская премьера: 23 июня 2016


Качество видео: WEBRip

Продолжительность: 01:30:31
Формат: AVI
Видео: XviD, 720x304 (2.35:1), 23.976 fps, 1769 kbps
Аудио: русский, любительский многоголосый закадровый, AC3 2.0, 48 kHz, 48 kHz, 384 kbps
Субтитры: китайские вшитые неотключаемые

Код:

Формат                                   : AVI
Формат/Информация                        : Audio Video Interleave
Размер файла                             : 1,37 Гбайт
Продолжительность                        : 1 ч. 30 м.
Общий поток                              : 2162 Кбит/сек
Программа кодирования                    : VirtualDubMod 1.5.10.2 (build 2540/release)
Библиотека кодирования                   : VirtualDubMod build 2540/release

Видео
Идентификатор                            : 0
Формат                                   : MPEG-4 Visual
Профиль формата                          : Advanced Simple@L5
Параметр BVOP формата                    : 2
Параметр QPel формата                    : Нет
Параметр GMC формата                     : Без точки перехода
Параметр матрицы формата                 : Default (MPEG)
Идентификатор кодека                     : XVID
Идентификатор кодека/Подсказка           : XviD
Продолжительность                        : 1 ч. 30 м.
Битрейт                                  : 1769 Кбит/сек
Ширина                                   : 720 пикселей
Высота                                   : 304 пикселя
Соотношение сторон                       : 2,35:1
Частота кадров                           : 23,976 кадра/сек
Цветовое пространство                    : YUV
Субдискретизация насыщенности            : 4:2:0
Битовая глубина                          : 8 бит
Тип развёртки                            : Прогрессивная
Метод сжатия                             : С потерями
Бит/(Пиксели*Кадры)                      : 0.337
Размер потока                            : 1,12 Гбайт (82%)
Библиотека кодирования                   : XviD 1.2.1 (UTC 2008-12-04)

Аудио
Идентификатор                            : 1
Формат                                   : AC-3
Формат/Информация                        : Audio Coding 3
Расширение режима                        : CM (complete main)
Параметр Endianness формата              : Big
Идентификатор кодека                     : 2000
Продолжительность                        : 1 ч. 30 м.
Вид битрейта                             : Постоянный
Битрейт                                  : 384 Кбит/сек
Каналы                                   : 2 канала
Расположение каналов                     : Front: L R
Частота                                  : 48,0 КГц
Битовая глубина                          : 16 бит
Метод сжатия                             : С потерями
Размер потока                            : 249 Мбайт (18%)
Выравнивание                             : Разделение по промежуткам
Продолжительность промежутка             : 42  мс. (1,00 видеокадр)
Время предзагрузки промежутка            : 500  мс.
Присутствует реклама


picpicpicpicpic
Для увеличения картинки щелкните мышкой по превью

Этот торрент недоступен для скачивания без регистрации, однако доступен по публичной magnet-ссылке (источники с публичных трекеров). Перед использованием ссылки прочтите, пожалуйста Пользовательское соглашение, а также как можно дольше оставайтесь на раздаче! Для того, чтобы скачать сам торрент-файл (который видит больше источников), а также для того, чтобы поблагодарить релизера, вам необходимо зарегистрироваться. Если регистрироваться лень - вы можете также попробовать скачать релиз по нашим партнерским ссылкам ниже.

[underverse.su].t66820.torrent
Трекер: Зарегистрирован   [ 03.06.2016 21:59 ]  

Статус: T временная (by makkol at 04.06.2016 15:35)
Поблагодарили: 1 человек
Тип торрента: публичный - доступные источники с открытых трекеров: 
Размер: 1,37 GB (занимает 0,31 DVDR, для записи нужно 1 болванка DVDR/RW)
 
 
Похожие темы
Форум Тема Автор Торрент Отв. Посл. сооб.
T Зарубежное кино [DVDRip, Low-Res HDRip, и т.д.] Соседи. На тропе войны 2 / Neighbors 2: Sorority Rising (Николас Столлер / Nicholas Stoller) [2016 г., комедия, BDRip-AVC] Dub (iTunes) + Original (Eng) + Sub (Eng) 90ytr90
76 | 13

0 | 251

3

03.11.2016 17:34

T Зарубежное кино [DVDRip, Low-Res HDRip, и т.д.] Соседи. На тропе войны 2 / Neighbors 2: Sorority Rising (Николас Столлер / Nicholas Stoller) [2016 г., комедия, BDRip-AVC] Dub (iTunes) 90ytr90
45 | 6

0 | 250

4

03.11.2016 17:30

T Зарубежное кино [DVDRip, Low-Res HDRip, и т.д.] Соседи. На тропе войны 2 / Neighbors 2: Sorority Rising (Николас Столлер / Nicholas Stoller) [2016 г., комедия, HDRip] Dub (iTunes) 90ytr90
29 | 1

0 | 244

2

03.11.2016 17:24

T Зарубежное кино [DVDRip, Low-Res HDRip, и т.д.] Соседи. На тропе войны / Neighbors (Николас Столлер) [2014 г., комедия, WEB-DLRip] Dub [Звук с TS] Паукан
8 | 0

0 | 746

24

12.08.2014 11:51

T Зарубежное кино [DVDRip, Low-Res HDRip, и т.д.] Соседи. На тропе войны / Neighbors (Николас Столлер) [2014 г., комедия, WEB-DLRip] Dub [Чистый звук] Паукан
1 | 0

0 | 756

55

20.08.2014 14:43

Зарубежное кино [DVDRip, Low-Res HDRip, и т.д.] Соседи. На тропе войны / Neighbors (Николас Столлер) [2014 г., Комедия, BDRip-AVC] Dub (RUS, Лицензия) + Original (ENG) + Subs (RUS, ENG, UKR) Ведьмочка
2 | 0

0 | 615

20

27.08.2014 08:38

Зарубежное кино [DVDRip, Low-Res HDRip, и т.д.] Соседи. На тропе войны / Neighbors (Николас Столлер) [2014 г., Комедия, HDRip-AVC] Dub (RUS, Лицензия) + Original (ENG) + Subs (ENG) Ведьмочка
1 | 0

0 | 579

44

27.08.2014 08:44

T Зарубежное кино [DVDRip, Low-Res HDRip, и т.д.] Соседи. На тропе войны 2 / Neighbors 2: Sorority Rising (Николас Столлер) [2016 г., комедия, WEBRip] Dub (звук с TS) makkol
78 | 0

0 | 673

23

26.06.2016 09:48

T Зарубежное кино [DVDRip, Low-Res HDRip, и т.д.] Соседи. На тропе войны 2 / Neighbors 2: Sorority Rising (Николас Столлер) [2016 г., комедия, WEBRip] Dub (Line) makkol
379 | 3

0 | 451

25

09.07.2016 22:21

T Зарубежное кино [DVDRip, Low-Res HDRip, и т.д.] Соседи. На тропе войны 2 / Neighbors 2: Sorority Rising (Николас Столлер) [2016 г., комедия, WEB-DLRip] Dub (Line) makkol
285 | 5

0 | 500

12

11.08.2016 13:53


Яндекс.Метрика powered by Sphinx


В Н И М А Н И Е
Сайт не распространяет и не хранит электронные версии произведений, а лишь бесплатно и без коммерческой выгоды (не требуя взамен платы,
SMS и т.д.) предоставляет доступ к создаваемому пользователями каталогу ссылок на торрент-файлы, которые содержат только списки хеш-сумм.
Убедительная просьба с жалобами обращаться напрямую к пользователю, разместившему торрент файл.

Вверх