Loading...
Error

Глаза медузы / Глазастики / Mememe no kurage / Jellyfish Eyes (Такаши Мураками) [2013 г., фэнтези, комедия, приключения, HDRip-AVC] DVO + Original

Статистика раздачи
Размер:  1,38 GB   |    Зарегистрирован:  5 месяцев   |    Скачан:  5 раз
Сидов:  1  |  0 KB/s  ]   Личеров:  0  |  0 KB/s  ]

* - сиды/пиры с внешних источников

   
 
Автор Сообщение

makkol Пол:Муж

03-Июн-2016 13:46

Глаза медузы / Глазастики
Mememe no kurage / Jellyfish Eyes


Год выпуска: 2013
Жанр: фэнтези, комедия, приключения
Производство: Япония [Kaikai Kiki Co., Nishimura Motion Picture Model Makers Group]
Режиссер: Такаши Мураками
В ролях: Химека Асами, Масатака Кубота, Асука Куросава, Такуми Сайто, Сёта Сомэтани, Суэока Такуто, Кандзи Цуда, Маю Тсурута
Сюжет фильма:
Ученик начальной школы по имени Масаси находит картонные коробки в доме, в который он только что переехал. В них живет странное существо, похожее на медузу. Масаси кладет это существо в сумку и идет с ним в школу, но оказывается, что никто кроме Масаси не видит его…

  • Мировая премьера: 8 апреля 2013


Качество видео: HDRip-AVC

Продолжительность: 01:41:39
Формат: MKV
Видео: MPEG-4 AVC, 720x404 (16:9), 23.976 fps, 1260 kbps
Аудио #1: русский, любительский двухголосый закадровый, AC3 5.1, 48 kHz, 448 kbps
Аудио #2: японский, оригинал, AC3 5.1, 48 kHz, 192 kbps
Субтитры: английские вшитые отключаемые

Код:

Формат                                   : Matroska
Версия формата                           : Version 4 / Version 2
Размер файла                             : 1,38 Гбайт
Продолжительность                        : 1 ч. 41 м.
Общий поток                              : 1938 Кбит/сек
Дата кодирования                         : UTC 2016-06-02 21:31:26
Программа кодирования                    : mkvmerge v7.9.0 ('Birds') 64bit
Библиотека кодирования                   : libebml v1.3.1 + libmatroska v1.4.2
DURATION                                 : 01:36:21.985000000
NUMBER_OF_FRAMES                         : 688
NUMBER_OF_BYTES                          : 16179
_STATISTICS_WRITING_APP                  : mkvmerge v8.7.0 ('All of the above') 64bit
_STATISTICS_WRITING_DATE_UTC             : 2016-03-09 05:13:22
_STATISTICS_TAGS                         : BPS DURATION NUMBER_OF_FRAMES NUMBER_OF_BYTES

Видео
Идентификатор                            : 1
Формат                                   : AVC
Формат/Информация                        : Advanced Video Codec
Профиль формата                          : High@L3.1
Параметр CABAC формата                   : Да
Параметр ReFrames формата                : 5 кадров
Идентификатор кодека                     : V_MPEG4/ISO/AVC
Продолжительность                        : 1 ч. 41 м.
Битрейт                                  : 1260 Кбит/сек
Ширина                                   : 720 пикселей
Высота                                   : 404 пикселя
Соотношение сторон                       : 16:9
Режим частоты кадров                     : Постоянный
Частота кадров                           : 23,976 кадра/сек
Цветовое пространство                    : YUV
Субдискретизация насыщенности            : 4:2:0
Битовая глубина                          : 8 бит
Тип развёртки                            : Прогрессивная
Бит/(Пиксели*Кадры)                      : 0.181
Размер потока                            : 916 Мбайт (65%)
Библиотека кодирования                   : x264 core 148 r2665 a01e339
Настройки программы                      : cabac=1 / ref=5 / deblock=1:-3:-3 / analyse=0x3:0x113 / me=umh / subme=8 / psy=1 / psy_rd=1.00:0.25 / mixed_ref=1 / me_range=24 / chroma_me=1 / trellis=1 / 8x8dct=1 / cqm=0 / deadzone=21,11 / fast_pskip=1 / chroma_qp_offset=-4 / threads=12 / lookahead_threads=2 / sliced_threads=0 / nr=0 / decimate=1 / interlaced=0 / bluray_compat=0 / constrained_intra=0 / bframes=3 / b_pyramid=2 / b_adapt=2 / b_bias=0 / direct=3 / weightb=1 / open_gop=0 / weightp=2 / keyint=240 / keyint_min=24 / scenecut=40 / intra_refresh=0 / rc_lookahead=50 / rc=crf / mbtree=1 / crf=19.0 / qcomp=0.60 / qpmin=0 / qpmax=69 / qpstep=4 / vbv_maxrate=17500 / vbv_bufsize=17500 / crf_max=0.0 / nal_hrd=none / filler=0 / ip_ratio=1.40 / aq=1:0.50
Язык                                     : Japanese
Default                                  : Да
Forced                                   : Нет
Цветовой диапазон                        : Limited
Коэффициенты матрицы                     : BT.709
DURATION                                 : 01:41:39.135000000
NUMBER_OF_FRAMES                         : 146233
NUMBER_OF_BYTES                          : 989982940
_STATISTICS_WRITING_APP                  : mkvmerge v8.7.0 ('All of the above') 64bit
_STATISTICS_WRITING_DATE_UTC             : 2016-03-09 05:13:22
_STATISTICS_TAGS                         : BPS DURATION NUMBER_OF_FRAMES NUMBER_OF_BYTES

Аудио #1
Идентификатор                            : 2
Формат                                   : AC-3
Формат/Информация                        : Audio Coding 3
Расширение режима                        : CM (complete main)
Параметр Endianness формата              : Big
Идентификатор кодека                     : A_AC3
Продолжительность                        : 1 ч. 41 м.
Вид битрейта                             : Постоянный
Битрейт                                  : 448 Кбит/сек
Каналы                                   : 6 каналов
Расположение каналов                     : Front: L C R, Side: L R, LFE
Частота                                  : 48,0 КГц
Метод сжатия                             : С потерями
Задержка видео                           : 22 с.
Размер потока                            : 326 Мбайт (23%)
Язык                                     : Russian
Default                                  : Да
Forced                                   : Нет

Аудио #2
Идентификатор                            : 3
Формат                                   : AC-3
Формат/Информация                        : Audio Coding 3
Расширение режима                        : CM (complete main)
Параметр Endianness формата              : Big
Идентификатор кодека                     : A_AC3
Продолжительность                        : 1 ч. 41 м.
Вид битрейта                             : Постоянный
Битрейт                                  : 192 Кбит/сек
Каналы                                   : 6 каналов
Расположение каналов                     : Front: L C R, Side: L R, LFE
Частота                                  : 48,0 КГц
Метод сжатия                             : С потерями
Задержка видео                           : 22 с.
Размер потока                            : 140 Мбайт (10%)
Язык                                     : Japanese
Default                                  : Нет
Forced                                   : Нет

Текст
Идентификатор                            : 4
Формат                                   : UTF-8
Идентификатор кодека                     : S_TEXT/UTF8
Идентификатор кодека/Информация          : UTF-8 Plain Text
Язык                                     : English
Default                                  : Да
Forced                                   : Нет

Меню
00:00:00.000                             : en:00:00:00.000
00:04:00.532                             : en:00:04:00.532
00:09:28.026                             : en:00:09:28.026
00:16:47.215                             : en:00:16:47.215
00:21:42.801                             : en:00:21:42.801
00:27:43.245                             : en:00:27:43.245
00:34:38.034                             : en:00:34:38.034
00:37:26.286                             : en:00:37:26.286
00:44:44.891                             : en:00:44:44.891
00:51:18.617                             : en:00:51:18.617
00:57:36.453                             : en:00:57:36.453
01:06:03.877                             : en:01:06:03.877
01:14:08.069                             : en:01:14:08.069
01:19:21.173                             : en:01:19:21.173
01:25:02.431                             : en:01:25:02.431
01:29:45.171                             : en:01:29:45.171
01:35:26.387                             : en:01:35:26.387
Перевод: akira9
Озвучивание: den904 & deadsno
picpicpicpicpic
Для увеличения картинки щелкните мышкой по превью

Этот торрент недоступен для скачивания без регистрации, однако доступен по публичной magnet-ссылке (источники с публичных трекеров). Перед использованием ссылки прочтите, пожалуйста Пользовательское соглашение, а также как можно дольше оставайтесь на раздаче! Для того, чтобы скачать сам торрент-файл (который видит больше источников), а также для того, чтобы поблагодарить релизера, вам необходимо зарегистрироваться. Если регистрироваться лень - вы можете также попробовать скачать релиз по нашим партнерским ссылкам ниже.

[underverse.su].t66818.torrent
Трекер: Зарегистрирован   [ 03.06.2016 13:46 ]  

Статус: проверено (by makkol at 03.06.2016 13:47)
Поблагодарили: пока никто не поблагодарил...
Тип торрента: публичный - доступные источники с открытых трекеров: 
Размер: 1,38 GB (занимает 0,31 DVDR, для записи нужно 1 болванка DVDR/RW)
 
 
Похожие темы
Форум Тема Автор Торрент Отв. Посл. сооб.
Зарубежное кино [HDDVDRip / BDRip / WEB-DL / HDTV 1080/720р] Глаза медузы / Глазастики / Mememe no kurage / Jellyfish Eyes (Такаши Мураками) [2016 г., фэнтези, комедия, приключения, BDRip 720p] DVO + Original makkol
1 | 0

0 | 643

4

05.06.2016 10:45


Яндекс.Метрика powered by Sphinx


В Н И М А Н И Е
Сайт не распространяет и не хранит электронные версии произведений, а лишь бесплатно и без коммерческой выгоды (не требуя взамен платы,
SMS и т.д.) предоставляет доступ к создаваемому пользователями каталогу ссылок на торрент-файлы, которые содержат только списки хеш-сумм.
Убедительная просьба с жалобами обращаться напрямую к пользователю, разместившему торрент файл.

Вверх