Loading...
Error

Моя большая греческая свадьба 2 / My Big Fat Greek Wedding 2 (Кирк Джонс) [2016 г., мелодрама, комедия, WEBRip] MVO

Статистика раздачи
Размер:  1,37 GB   |    Зарегистрирован:  6 месяцев   |    Скачан:  9 раз

Полного источника не было: 11 часов

Сидов:  0  |  0 KB/s  ]   Личеров:  0  |  0 KB/s  ]

* - сиды/пиры с внешних источников

   
 
Автор Сообщение

makkol Пол:Муж

01-Июн-2016 10:45

Моя большая греческая свадьба 2
My Big Fat Greek Wedding 2


Год выпуска: 2016
Жанр: мелодрама, комедия
Страна: США , Канада [Gold Circle Films, HBO Films, Playtone, Universal Pictures]
Режиссер: Кирк Джонс
В ролях: Ниа Вардалос, Джон Корбетт, Майкл Константин, Лэйни Казан, Андреа Мартин, Джиа Каридес, Джои Фатоне, Елена Кампурис, Алекс Вулф, Луис Мэндилор
Сюжет фильма:
У главных героев первого фильма, Тулы Портокалос и Йена Миллера, подросла дочь, которая ждет не дождется уйти из-под крыла родителей. Тем временем, оказывается, что родители Тулы не заключили брак официально, и им придется устроить свадьбу.

  • Мировая премьера: 15 марта 2016
  • Российская премьера: 19 мая 2016


Качество видео: WEBRip

Продолжительность: 01:33:09
Формат: AVI
Видео: XviD, 720x304 (2.35:1), 23.976 fps, 1317 kbps
Аудио: русский, любительский многоголосый закадровый, AC3 2.0, 48 kHz, 384 kbps
Субтитры: корейские вшитые неотключаемые

Код:

Format : AVI
Format/Info : Audio Video Interleave
Overall bit rate : 1 711 Kbps
Writing application : VirtualDubMod 1.5.10.3 | (build 2550/release)
Writing library : VirtualDubMod build 2550/release

Video
ID : 0
Format : MPEG-4 Visual
Format profile : Advanced Simple@L5
Format settings, BVOP : 2
Format settings, QPel : No
Format settings, GMC : No warppoints
Format settings, Matrix : Custom
Codec ID : XVID
Codec ID/Hint : XviD
Bit rate : 1 317 Kbps
Width : 720 pixels
Height : 304 pixels
Display aspect ratio : 2.35:1
Frame rate : 23.976 fps
Color space : YUV
Chroma subsampling : 4:2:0
Bit depth : 8 bits
Scan type : Progressive
Compression mode : Lossy
Bits/(Pixel*Frame) : 0.251
Stream size : 11.0 MiB (77%)
Writing library : XviD 1.2.1 (UTC 2008-12-04)

Audio
ID : 1
Format : AC-3
Format/Info : Audio Coding 3
Mode extension : CM (complete main)
Format settings, Endianness : Big
Codec ID : 2000
Bit rate mode : Constant
Bit rate : 384 Kbps
Channel(s) : 2 channels
Channel positions : Front: L R
Sampling rate : 48.0 KHz
Compression mode : Lossy
Delay relative to video : 22ms
Stream size : 3.20 MiB (22%)
Alignment : Split accross interleaves
Interleave, duration : 42 ms (1.01 video frame)
Interleave, preload duration : 500 ms
Присутствует реклама


picpicpicpicpic
Для увеличения картинки щелкните мышкой по превью

Этот торрент недоступен для скачивания без регистрации, однако доступен по публичной magnet-ссылке (источники с публичных трекеров). Перед использованием ссылки прочтите, пожалуйста Пользовательское соглашение, а также как можно дольше оставайтесь на раздаче! Для того, чтобы скачать сам торрент-файл (который видит больше источников), а также для того, чтобы поблагодарить релизера, вам необходимо зарегистрироваться. Если регистрироваться лень - вы можете также попробовать скачать релиз по нашим партнерским ссылкам ниже.

[underverse.su].t66768.torrent
Трекер: Зарегистрирован   [ 01.06.2016 10:45 ]  

Статус: T временная (by makkol at 04.06.2016 15:23)
Поблагодарили: 1 человек
Тип торрента: публичный - доступные источники с открытых трекеров: 
Размер: 1,37 GB (занимает 0,31 DVDR, для записи нужно 1 болванка DVDR/RW)
 
 
Похожие темы
Форум Тема Автор Торрент Отв. Посл. сооб.
* Зарубежное кино [DVDRip, Low-Res HDRip, и т.д.] Моя большая греческая свадьба 2 / My Big Fat Greek Wedding 2 (Кирк Джонс / Kirk Jones) [2016 г., мелодрама, комедия, HDRip] Dub (звук с TS) 90ytr90
2 | 0

0 | 118

3

25.11.2016 19:19

Зарубежное кино [DVDRip, Low-Res HDRip, и т.д.] Моя большая испанская семья / La gran familia espanola (Даниэль Санчес Аревало) [2013 г., комедия, мелодрама, драма, HDRip] MVO Паукан
1 | 0

0 | 1398

13

21.05.2014 14:29

Зарубежное кино [DVDRip, Low-Res HDRip, и т.д.] Моя большая греческая свадьба 2 / My Big Fat Greek Wedding 2 (Кирк Джонс) [2016 г., мелодрама, комедия, HDRip] MVO makkol
2 | 0

0 | 462

9

09.06.2016 22:12

Зарубежное кино [DVDRip, Low-Res HDRip, и т.д.] Моя большая греческая свадьба 2 / My Big Fat Greek Wedding 2 (Кирк Джонс / Kirk Jones) [2016 г., мелодрама, комедия, HDRip] MVO (Parovoz Production) 90ytr90
172 | 6

0 | 292

8

14.06.2016 05:35

xUSSR сериалы Моя большая семья (сериал) [01-12 из 12] (Давид Ткебучава) [2012 г., мелодрама, детектив, SatRip] H. Ledger
0 | 0

0 | 487

4

11.06.2012 00:43

* Зарубежное кино [HDDVDRip / BDRip / WEB-DL / HDTV 1080/720р] Моя большая греческая свадьба 2 / My Big Fat Greek Wedding 2 (Кирк Джонс / Kirk Jones) [2016 г., мелодрама, комедия, BDRip 1080p] Dub (звук с TS) 90ytr90
2 | 0

0 | 116

0

25.11.2016 19:28

* Зарубежное кино [HDDVDRip / BDRip / WEB-DL / HDTV 1080/720р] Моя большая греческая свадьба 2 / My Big Fat Greek Wedding 2 (Кирк Джонс / Kirk Jones) [2016 г., мелодрама, комедия, BDRip 720p] Dub (звук с TS) 90ytr90
4 | 0

0 | 110

1

25.11.2016 19:25

T Зарубежное кино [HDDVDRip / BDRip / WEB-DL / HDTV 1080/720р] Моя большая греческая свадьба 2 / My Big Fat Greek Wedding 2 (Кирк Джонс) [2016 г., мелодрама, комедия, WEBRip 1080p] MVO + Original makkol
0 | 0

0 | 640

5

01.06.2016 10:53

Зарубежное кино [HDDVDRip / BDRip / WEB-DL / HDTV 1080/720р] Моя большая греческая свадьба 2 / My Big Fat Greek Wedding 2 (Кирк Джонс) [2016 г., мелодрама, комедия, BDRip 1080p] MVO makkol
0 | 0

0 | 451

2

09.06.2016 22:22

# Зарубежное кино [HDDVDRip / BDRip / WEB-DL / HDTV 1080/720р] Моя большая греческая свадьба 2 / My Big Fat Greek Wedding 2 (Кирк Джонс / Kirk Jones) [2016 г., мелодрама, комедия, BDRip 720p] MVO (Parovoz Production) + Original (Eng) + Sub (Eng) 90ytr90
17 | 0

0 | 218

2

14.06.2016 05:47


Яндекс.Метрика powered by Sphinx


В Н И М А Н И Е
Сайт не распространяет и не хранит электронные версии произведений, а лишь бесплатно и без коммерческой выгоды (не требуя взамен платы,
SMS и т.д.) предоставляет доступ к создаваемому пользователями каталогу ссылок на торрент-файлы, которые содержат только списки хеш-сумм.
Убедительная просьба с жалобами обращаться напрямую к пользователю, разместившему торрент файл.

Вверх