Loading...
Error

Элвис и Никсон / Elvis & Nixon (Лиза Джонсон) [2016 г., комедия, история, WEB-DLRip] Dub (iTunes)

Статистика раздачи
Размер:  1,35 GB   |    Зарегистрирован:  6 месяцев   |    Скачан:  13 раз

Полного источника не было: 7 дней

Сидов:  0  |  0 KB/s  ]   Личеров:  0  |  0 KB/s  ]

* - сиды/пиры с внешних источников

   
 
Автор Сообщение

makkol Пол:Муж

30-Май-2016 22:39

Элвис и Никсон / Elvis & Nixon
«Реальная история, в которую вы не поверите»

Год выпуска: 2016
Жанр: комедия, история
Производство: США [Amazon Studios]
Режиссер: Лиза Джонсон
В ролях: Кевин Спейси, Майкл Шеннон, Алекс Петтифер, Джонни Ноксвил, Колин Хэнкс, Эван Питерс, Скай Феррейра, Трэйси Леттс, Тейт Донован, Эшли Бенсон
Сюжет фильма:
О чем болтали король рок-н-ролла Элвис Пресли и президент США Ричард Никсон, когда они встретились в Овальном кабинете? Обеспокоенный стремительным распространением в Америке наркомании и социализма, Элвис просит назначить его тайным агентом наркоконтроля. Президент принимает предложение певца, но заставить Пресли соблюсти хотя бы протокол Белому дому так и не удалось…

  • Мировая премьера: 18 апреля 2016
  • Российская премьера: 21 апреля 2016
  • Релиз на DVD: 25 июля 2016


Качество видео: WEB-DLRip

Продолжительность: 01:22:30
Формат: AVI
Видео: XviD, 720x304 (2.35:1), 25.000 fps, 1944 kbps
Аудио: русский, дублированный (iTunes), AC3 5.1, 48 kHz, 384 kbps

Код:

Формат                                   : AVI
Формат/Информация                        : Audio Video Interleave
Размер файла                             : 1,35 Гбайт
Продолжительность                        : 1 ч. 22 м.
Общий поток                              : 2338 Кбит/сек
Программа кодирования                    : VirtualDubMod 1.5.10.3 | | (build 2550/release)
Библиотека кодирования                   : VirtualDubMod build 2550/release

Видео
Идентификатор                            : 0
Формат                                   : MPEG-4 Visual
Профиль формата                          : Advanced Simple@L5
Параметр BVOP формата                    : 2
Параметр QPel формата                    : Нет
Параметр GMC формата                     : Без точки перехода
Параметр матрицы формата                 : Default (MPEG)
Идентификатор кодека                     : XVID
Идентификатор кодека/Подсказка           : XviD
Продолжительность                        : 1 ч. 22 м.
Битрейт                                  : 1944 Кбит/сек
Ширина                                   : 720 пикселей
Высота                                   : 304 пикселя
Соотношение сторон                       : 2,35:1
Частота кадров                           : 25,000 кадров/сек
Цветовое пространство                    : YUV
Субдискретизация насыщенности            : 4:2:0
Битовая глубина                          : 8 бит
Тип развёртки                            : Прогрессивная
Метод сжатия                             : С потерями
Бит/(Пиксели*Кадры)                      : 0.355
Размер потока                            : 1,12 Гбайт (83%)
Библиотека кодирования                   : XviD 1.2.1 (UTC 2008-12-04)

Аудио
Идентификатор                            : 1
Формат                                   : AC-3
Формат/Информация                        : Audio Coding 3
Расширение режима                        : CM (complete main)
Параметр Endianness формата              : Big
Идентификатор кодека                     : 2000
Продолжительность                        : 1 ч. 22 м.
Вид битрейта                             : Постоянный
Битрейт                                  : 384 Кбит/сек
Каналы                                   : 6 каналов
Расположение каналов                     : Front: L C R, Side: L R, LFE
Частота                                  : 48,0 КГц
Частота кадров                           : 31,250 кадров/сек (1536 spf)
Метод сжатия                             : С потерями
Размер потока                            : 227 Мбайт (16%)
Выравнивание                             : Разделение по промежуткам
Продолжительность промежутка             : 40  мс. (1,00 видеокадр)
Время предзагрузки промежутка            : 500  мс.
picpicpicpicpic
Для увеличения картинки щелкните мышкой по превью

Этот торрент недоступен для скачивания без регистрации, однако доступен по публичной magnet-ссылке (источники с публичных трекеров). Перед использованием ссылки прочтите, пожалуйста Пользовательское соглашение, а также как можно дольше оставайтесь на раздаче! Для того, чтобы скачать сам торрент-файл (который видит больше источников), а также для того, чтобы поблагодарить релизера, вам необходимо зарегистрироваться. Если регистрироваться лень - вы можете также попробовать скачать релиз по нашим партнерским ссылкам ниже.

[underverse.su].t66684.torrent
Трекер: Зарегистрирован   [ 30.05.2016 22:39 ]  

Статус: T временная (by makkol at 03.06.2016 23:37)
Поблагодарили: пока никто не поблагодарил...
Тип торрента: публичный - доступные источники с открытых трекеров: 
Размер: 1,35 GB (занимает 0,31 DVDR, для записи нужно 1 болванка DVDR/RW)
 
 
Похожие темы
Форум Тема Автор Торрент Отв. Посл. сооб.
T Зарубежное кино [HDDVDRip / BDRip / WEB-DL / HDTV 1080/720р] Элвис и Никсон / Elvis & Nixon (Лиза Джонсон) [2016 г., комедия, история, WEB-DL 1080p] Dub (iTunes) makkol
90 | 0

0 | 311

10

30.05.2016 22:47


Яндекс.Метрика powered by Sphinx


В Н И М А Н И Е
Сайт не распространяет и не хранит электронные версии произведений, а лишь бесплатно и без коммерческой выгоды (не требуя взамен платы,
SMS и т.д.) предоставляет доступ к создаваемому пользователями каталогу ссылок на торрент-файлы, которые содержат только списки хеш-сумм.
Убедительная просьба с жалобами обращаться напрямую к пользователю, разместившему торрент файл.

Вверх