Loading...
Error

Не будь злым / Non essere cattivo (Клаудио Калигари) [2015 г., драма, криминал, DVDRip] VO

Статистика раздачи
Размер:  1,46 GB   |    Зарегистрирован:  6 месяцев   |    Скачан:  4 раза

Полного источника не было: 3 дня

Сидов:  0  |  0 KB/s  ]   Личеров:  0  |  0 KB/s  ]

* - сиды/пиры с внешних источников

   
 
Автор Сообщение

makkol Пол:Муж

28-Май-2016 23:42

Не будь злым / Non essere cattivo


Год выпуска: 2015
Жанр: драма, криминал
Производство: Италия [Kimerafilm, Rai Cinema, Taodue Film]
Режиссер: Клаудио Калигари
В ролях: Лука Маринелли, Алессандро Борги, Роберта Маттеи, Сильвия д’Амико, Алессандро Бернардини, Валентино Кампителли, Данило Каппанелли, Мануэль Рулли, Эмануэла Фанелли, Джулия Греко
Сюжет фильма:
Остия, предместья Рима, 1995 год. Здесь живут Чезаре и Витторио, два друга детства, оба выходцы из небогатых семей, которые живут, ударяясь в крайности, проводят свои дни и ночи между ночными клубами, наркотиками, алкоголем. Каждый из них ищет успеха, но, как показывают дальнейшие события, для каждого из них этот самый успех заключается в совсем разных вещах.

  • Мировая премьера: 7 сентября 2015


Качество видео: DVDRip

Продолжительность: 01:38:13
Формат: AVI
Видео: XviD, 720x304 (2.35:1), 25.000 fps, 1737 kbps
Аудио: русский, любительский одноголосый закадровый (Сибирский), AC3 5.1, 48 kHz, 384 kbps

Код:

Format : AVI
Format/Info : Audio Video Interleave
File size : 1.46 GiB
Duration : 1h 38mn
Overall bit rate : 2 131 Kbps
Writing application : VirtualDubMod 1.5.10.3 | www.virtualdub-fr.org || (build 2550/release)
Writing library : VirtualDubMod build 2550/release

Video
ID : 0
Format : MPEG-4 Visual
Format profile : Advanced Simple@L5
Format settings, BVOP : 1
Format settings, QPel : No
Format settings, GMC : No warppoints
Format settings, Matrix : Custom
Codec ID : XVID
Codec ID/Hint : XviD
Duration : 1h 38mn
Bit rate : 1 737 Kbps
Width : 720 pixels
Height : 304 pixels
Display aspect ratio : 2.35:1
Frame rate : 25.000 fps
Color space : YUV
Chroma subsampling : 4:2:0
Bit depth : 8 bits
Scan type : Progressive
Compression mode : Lossy
Bits/(Pixel*Frame) : 0.317
Stream size : 1.19 GiB (82%)
Writing library : XviD 73

Audio
ID : 1
Format : AC-3
Format/Info : Audio Coding 3
Mode extension : CM (complete main)
Format settings, Endianness : Big
Codec ID : 2000
Duration : 1h 38mn
Bit rate mode : Constant
Bit rate : 384 Kbps
Channel(s) : 6 channels
Channel positions : Front: L C R, Side: L R, LFE
Sampling rate : 48.0 KHz
Frame rate : 31.250 fps (1536 spf)
Compression mode : Lossy
Stream size : 270 MiB (18%)
Alignment : Split accross interleaves
Interleave, duration : 40 ms (1.00 video frame)
Interleave, preload duration : 500 ms
Релиз:

picpicpicpicpic
Для увеличения картинки щелкните мышкой по превью

Этот торрент недоступен для скачивания без регистрации, однако доступен по публичной magnet-ссылке (источники с публичных трекеров). Перед использованием ссылки прочтите, пожалуйста Пользовательское соглашение, а также как можно дольше оставайтесь на раздаче! Для того, чтобы скачать сам торрент-файл (который видит больше источников), а также для того, чтобы поблагодарить релизера, вам необходимо зарегистрироваться. Если регистрироваться лень - вы можете также попробовать скачать релиз по нашим партнерским ссылкам ниже.

[underverse.su].t66628.torrent
Трекер: Зарегистрирован   [ 28.05.2016 23:42 ]  

Статус: проверено (by makkol at 29.05.2016 23:48)
Поблагодарили: пока никто не поблагодарил...
Тип торрента: публичный - доступные источники с открытых трекеров: 
Размер: 1,46 GB (занимает 0,33 DVDR, для записи нужно 1 болванка DVDR/RW)
 
 
Похожие темы
Форум Тема Автор Торрент Отв. Посл. сооб.
# Зарубежное кино [DVDRip, Low-Res HDRip, и т.д.] Не будь злым / Non essere cattivo (Клаудио Калигари / Claudio Caligari) [2015 г., драма, криминал, DVDRip-AVC] VO (Сибирский) 90ytr90
26 | 0

0 | 362

9

29.05.2016 06:41


Яндекс.Метрика powered by Sphinx


В Н И М А Н И Е
Сайт не распространяет и не хранит электронные версии произведений, а лишь бесплатно и без коммерческой выгоды (не требуя взамен платы,
SMS и т.д.) предоставляет доступ к создаваемому пользователями каталогу ссылок на торрент-файлы, которые содержат только списки хеш-сумм.
Убедительная просьба с жалобами обращаться напрямую к пользователю, разместившему торрент файл.

Вверх