Loading...
Error

Дьявольская деревня / Le village des ombres (Фуад Бенжаму) [2010 г., ужасы, триллер, детектив, DVDRip] VO + Original

Статистика раздачи
Размер:  1,46 GB   |    Зарегистрирован:  6 месяцев   |    Скачан:  6 раз

Полного источника не было: 2 дня 5 часов

Сидов:  0  |  0 KB/s  ]   Личеров:  0  |  0 KB/s  ]

* - сиды/пиры с внешних источников

   
 
Автор Сообщение

makkol Пол:Муж

28-Май-2016 14:24

Дьявольская деревня / Le village des ombres


Год выпуска: 2010
Жанр: ужасы, триллер, детектив
Производство: Франция [Banque Populaire Images 10, Canal+ [fr], Centre National de la Cinématographie (CNC), Ciné Cinémas]
Режиссер: Фуад Бенжаму
В ролях: Криста Тере, Барбара Гоэнага, Сирилл Тувенин, Орнелла Бул, Аксель Кинер, Джонатан Коэн, Тео Фернандез, Джёдье Апали, Жерар Дессаль
Сюжет фильма:
Группа друзей отправились в путь, чтобы провести выходные в деревне Руйфлек. Прибыв, некоторые таинственно исчезают, другие, пытаясь проследить за ними, будут делать все, чтобы остаться в живых и спастись от лап Дьявольской деревни…

  • Мировая премьера: 26 октября 2010


Качество видео: DVDRip

Продолжительность: 01:39:59
Формат: AVI
Видео: XviD, 720x306 (2.35:1), 25.000 fps, 1501 kbps
Аудио #1: русский, любительский одноголосый закадровый, MP3 2.0, 48 kHz, 128 kbps
Аудио #2: английский, оригинал, AC3 5.1, 48 kHz, 448 kbps

Код:

Format : AVI
Format/Info : Audio Video Interleave
File size : 1.46 GiB
Duration : 1h 39mn
Overall bit rate : 2 089 Kbps
Director : FwD
Writing application : VirtualDubMod 1.5.10.2 (build 2540/release)
Writing library : VirtualDubMod build 2540/release
Original source form/Name : LE_VILLAGE_DES_OMBRES_VIAZAC

Video
ID : 0
Format : MPEG-4 Visual
Format profile : Simple@L3
Format settings, BVOP : No
Format settings, QPel : No
Format settings, GMC : No warppoints
Format settings, Matrix : Default (H.263)
Codec ID : XVID
Codec ID/Hint : XviD
Duration : 1h 39mn
Bit rate : 1 501 Kbps
Width : 720 pixels
Height : 306 pixels
Display aspect ratio : 2.35:1
Frame rate : 25.000 fps
Color space : YUV
Chroma subsampling : 4:2:0
Bit depth : 8 bits
Scan type : Progressive
Compression mode : Lossy
Bits/(Pixel*Frame) : 0.272
Stream size : 1.05 GiB (72%)
Writing library : XviD 1.2.1 (UTC 2008-12-04)

Audio #1
ID : 1
Format : MPEG Audio
Format version : Version 1
Format profile : Layer 3
Mode : Joint stereo
Mode extension : MS Stereo
Codec ID : 55
Codec ID/Hint : MP3
Duration : 1h 39mn
Bit rate mode : Constant
Bit rate : 128 Kbps
Channel(s) : 2 channels
Sampling rate : 48.0 KHz
Compression mode : Lossy
Stream size : 91.6 MiB (6%)
Alignment : Aligned on interleaves
Interleave, duration : 40 ms (1.00 video frame)
Interleave, preload duration : 504 ms

Audio #2
ID : 2
Format : AC-3
Format/Info : Audio Coding 3
Mode extension : CM (complete main)
Codec ID : 2000
Duration : 1h 39mn
Bit rate mode : Constant
Bit rate : 448 Kbps
Channel(s) : 6 channels
Channel positions : Front: L C R, Side: L R, LFE
Sampling rate : 48.0 KHz
Bit depth : 16 bits
Compression mode : Lossy
Stream size : 319 MiB (21%)
Alignment : Split accross interleaves
Interleave, duration : 40 ms (1.00 video frame)
Interleave, preload duration : 500 ms
Перевод: merrzavka
Озвучивание: -Anubis-
picpicpicpicpic
Для увеличения картинки щелкните мышкой по превью

Этот торрент недоступен для скачивания без регистрации, однако доступен по публичной magnet-ссылке (источники с публичных трекеров). Перед использованием ссылки прочтите, пожалуйста Пользовательское соглашение, а также как можно дольше оставайтесь на раздаче! Для того, чтобы скачать сам торрент-файл (который видит больше источников), а также для того, чтобы поблагодарить релизера, вам необходимо зарегистрироваться. Если регистрироваться лень - вы можете также попробовать скачать релиз по нашим партнерским ссылкам ниже.

[underverse.su].t66623.torrent
Трекер: Зарегистрирован   [ 28.05.2016 14:24 ]  

Статус: проверено (by makkol at 29.05.2016 23:45)
Поблагодарили: пока никто не поблагодарил...
Тип торрента: публичный - доступные источники с открытых трекеров: 
Размер: 1,46 GB (занимает 0,33 DVDR, для записи нужно 1 болванка DVDR/RW)
 
 
Похожие темы
Форум Тема Автор Торрент Отв. Посл. сооб.
Зарубежное кино [DVDRip, Low-Res HDRip, и т.д.] Дьявольская роща / Devil's Grove (Майкл Дж. Хейн, Р. Зои Джудд) [2008, ужасы, DVDRip] VO (den904) Garnett
1 | 0

0 | 9294

10

02.01.2013 13:22


Яндекс.Метрика powered by Sphinx


В Н И М А Н И Е
Сайт не распространяет и не хранит электронные версии произведений, а лишь бесплатно и без коммерческой выгоды (не требуя взамен платы,
SMS и т.д.) предоставляет доступ к создаваемому пользователями каталогу ссылок на торрент-файлы, которые содержат только списки хеш-сумм.
Убедительная просьба с жалобами обращаться напрямую к пользователю, разместившему торрент файл.

Вверх