Loading...
Error

Ольга Шукшина. Если бы папа был жив [2016 г., документальный, биография, история, SatRip]

Статистика раздачи
Размер:  719 MB   |    Зарегистрирован:  6 месяцев   |    Скачан:  2 раза

Полного источника не было: 6 месяцев

Сидов:  0  |  0 KB/s  ]   Личеров:  0  |  0 KB/s  ]

* - сиды/пиры с внешних источников

   
 
Автор Сообщение

ARI71 Пол:Муж

28-Май-2016 13:58

Ольга Шукшина. Если бы папа был жив


Год выпуска: 2016
Жанр: документальный, биография, история
Страна: Россия Первый канал
Режиссер: Георгий Ананов
В ролях: Ольга Шукшина
Сюжет фильма:
Ольга Шукшина, младшая дочь писателя и режиссера Василия Шукшина, человек не публичный. Но так было до недавней поры. В отличие от своей известной мамы Лидии Николаевны Федосеевой-Шукшиной и сестры Маши, популярной телеведущей, Оля не посещала светские мероприятия, не снималась в кино, хотя училась во ВГИКе. О ней говорили: ушла в монастырь и там, в тиши и уединении, ведет праведный образ жизни, молится за своих близких. Оля молчала больше 15 лет. И на все назойливые попытки журналистов взять у нее интервью отвечала твердо и категорично: «Нет»! В результате все поверили в том, что это не «поза», а позиция. Тем неожиданней был ее громкий выход в свет и готовность дать эксклюзивное интервью.
Качество видео: SatRip

Продолжительность: 00:50:11
Формат: AVI
Видео: XviD, 704x448, ~1800 kbps
Аудио: русский, (оригинал), AC3 2.0, ~192.00 kbps
ШУКШИНА ОЛЬГА ВАСИЛЬЕВНА
Родилась 29 июля 1968 года.
Дочь актёра и писателя Василия Шукшина и актрисы Лидии Федосеевой-Шукшиной.
В возрасте 6 лет впервые в кино снялась вместе с матерью и сестрой Машей в фильме Сергея Никоненко "Птицы над городом".

После школы два года проучилась в ГИТИСе у Андрея Гончарова, затем перевелась во ВГИК. Снялась в нескольких картинах: драме режиссёра Глеба Панфилова "Мать", фильме Евгения Марковского "Вечный муж" по одноименной повести Ф.М. Достоевского и психологической драме Адель Аль-Хадада "Уставшие".
По окончании ВГИКа поступила в Литературный институт, но не доучилась.

Работала при монастыре, преподавала литературу в церковном приюте.
Занимается изучением наследия своего отца и организует социальные проекты, в которых реализуются идеи Шукшина.

Код:

Общее
Полное имя : D:\Olga.Shukshina.Esli.by.papa.byl.zhiv.SATRip.[www.riperam.org].avi
Формат : AVI
Формат/Информация : Audio Video Interleave
Размер файла : 719 Мбайт
Продолжительность : 50 м.
Общий поток : 2002 Кбит/сек
Программа кодирования : VirtualDubMod 1.5.10.3 | www.virtualdub-fr.org || (build 2550/release)
Библиотека кодирования : VirtualDubMod build 2550/release

Видео
Идентификатор : 0
Формат : MPEG-4 Visual
Профиль формата : Advanced Simple@L5
Параметр BVOP формата : 2
Параметр QPel формата : Нет
Параметр GMC формата : Без точки перехода
Параметр матрицы формата : Default (H.263)
Идентификатор кодека : XVID
Идентификатор кодека/Подсказка : XviD
Продолжительность : 50 м.
Битрейт : 1800 Кбит/сек
Ширина : 704 пикселя
Высота : 448 пикселей
Соотношение сторон : 16:10
Частота кадров : 25,000 кадров/сек
Цветовое пространство : YUV
Субдискретизация насыщенности : 4:2:0
Битовая глубина : 8 бит
Тип развёртки : Прогрессивная
Метод сжатия : С потерями
Бит/(Пиксели*Кадры) : 0.228
Размер потока : 646 Мбайт (90%)
Библиотека кодирования : XviD 1.2.1 (UTC 2008-12-04)

Аудио
Идентификатор : 1
Формат : AC-3
Формат/Информация : Audio Coding 3
Расширение режима : CM (complete main)
Параметр Endianness формата : Big
Идентификатор кодека : 2000
Продолжительность : 50 м.
Вид битрейта : Постоянный
Битрейт : 192 Кбит/сек
Каналы : 2 канала
Расположение каналов : Front: L R
Частота : 48,0 КГц
Метод сжатия : С потерями
Размер потока : 68,9 Мбайт (10%)
Выравнивание : Разделение по промежуткам
Продолжительность промежутка : 40 мс. (1,00 видеокадр)
Время предзагрузки промежутка : 500 мс.
picpicpicpicpic
Для увеличения картинки щелкните мышкой по превью

Этот торрент недоступен для скачивания без регистрации, однако доступен по публичной magnet-ссылке (источники с публичных трекеров). Перед использованием ссылки прочтите, пожалуйста Пользовательское соглашение, а также как можно дольше оставайтесь на раздаче! Для того, чтобы скачать сам торрент-файл (который видит больше источников), а также для того, чтобы поблагодарить релизера, вам необходимо зарегистрироваться. Если регистрироваться лень - вы можете также попробовать скачать релиз по нашим партнерским ссылкам ниже.

[underverse.su].t66621.torrent
Трекер: Зарегистрирован   [ 28.05.2016 13:58 ]  

Статус: проверено (by makkol at 28.05.2016 14:26)
Поблагодарили: пока никто не поблагодарил...
Тип торрента: публичный - доступные источники с открытых трекеров: 
Размер: 719 MB (занимает 0,16 DVDR, для записи нужно 1 болванка DVDR/RW)
 
 

Яндекс.Метрика powered by Sphinx


В Н И М А Н И Е
Сайт не распространяет и не хранит электронные версии произведений, а лишь бесплатно и без коммерческой выгоды (не требуя взамен платы,
SMS и т.д.) предоставляет доступ к создаваемому пользователями каталогу ссылок на торрент-файлы, которые содержат только списки хеш-сумм.
Убедительная просьба с жалобами обращаться напрямую к пользователю, разместившему торрент файл.

Вверх